  0
SECTION
  2
HEADER
  9
$ACADVER
  1
AC1015
  9
$ACADMAINTVER
 70
    20
  9
$DWGCODEPAGE
  3
ANSI_936
  9
$INSBASE
 10
0.0
 20
0.0
 30
0.0
  9
$EXTMIN
 10
1105.858699879223
 20
99.48960789157906
 30
0.0
  9
$EXTMAX
 10
1127.224637584473
 20
179.0630482163708
 30
0.0
  9
$LIMMIN
 10
0.0
 20
0.0
  9
$LIMMAX
 10
12.0
 20
9.0
  9
$ORTHOMODE
 70
     1
  9
$REGENMODE
 70
     1
  9
$FILLMODE
 70
     1
  9
$QTEXTMODE
 70
     0
  9
$MIRRTEXT
 70
     0
  9
$LTSCALE
 40
1.0
  9
$ATTMODE
 70
     1
  9
$TEXTSIZE
 40
0.2
  9
$TRACEWID
 40
0.05
  9
$TEXTSTYLE
  7
STANDARD
  9
$CLAYER
  8
标注
  9
$CELTYPE
  6
ByLayer
  9
$CECOLOR
 62
   256
  9
$CELTSCALE
 40
1.0
  9
$DISPSILH
 70
     0
  9
$DIMSCALE
 40
1.0
  9
$DIMASZ
 40
0.65
  9
$DIMEXO
 40
0.88
  9
$DIMDLI
 40
0.015
  9
$DIMRND
 40
0.0
  9
$DIMDLE
 40
0.0
  9
$DIMEXE
 40
0.32
  9
$DIMTP
 40
0.0
  9
$DIMTM
 40
0.0
  9
$DIMTXT
 40
0.65
  9
$DIMCEN
 40
0.09
  9
$DIMTSZ
 40
0.0
  9
$DIMTOL
 70
     0
  9
$DIMLIM
 70
     0
  9
$DIMTIH
 70
     0
  9
$DIMTOH
 70
     0
  9
$DIMSE1
 70
     0
  9
$DIMSE2
 70
     0
  9
$DIMTAD
 70
     0
  9
$DIMZIN
 70
     8
  9
$DIMBLK
  1

  9
$DIMASO
 70
     1
  9
$DIMSHO
 70
     1
  9
$DIMPOST
  1
"
  9
$DIMAPOST
  1
"
  9
$DIMALT
 70
     0
  9
$DIMALTD
 70
     1
  9
$DIMALTF
 40
0.03937
  9
$DIMLFAC
 40
1.0
  9
$DIMTOFL
 70
     1
  9
$DIMTVP
 40
0.0
  9
$DIMTIX
 70
     0
  9
$DIMSOXD
 70
     0
  9
$DIMSAH
 70
     0
  9
$DIMBLK1
  1

  9
$DIMBLK2
  1

  9
$DIMSTYLE
  2
副本STANDARD
  9
$DIMCLRD
 70
   256
  9
$DIMCLRE
 70
   256
  9
$DIMCLRT
 70
   256
  9
$DIMTFAC
 40
1.0
  9
$DIMGAP
 40
0.3
  9
$DIMJUST
 70
     0
  9
$DIMSD1
 70
     0
  9
$DIMSD2
 70
     0
  9
$DIMTOLJ
 70
     1
  9
$DIMTZIN
 70
     8
  9
$DIMALTZ
 70
     8
  9
$DIMALTTZ
 70
     8
  9
$DIMUPT
 70
     0
  9
$DIMDEC
 70
     3
  9
$DIMTDEC
 70
     3
  9
$DIMALTU
 70
     2
  9
$DIMALTTD
 70
     1
  9
$DIMTXSTY
  7
STANDARD
  9
$DIMAUNIT
 70
     0
  9
$DIMADEC
 70
     0
  9
$DIMALTRND
 40
0.0
  9
$DIMAZIN
 70
     0
  9
$DIMDSEP
 70
    46
  9
$DIMATFIT
 70
     3
  9
$DIMFRAC
 70
     2
  9
$DIMLDRBLK
  1

  9
$DIMLUNIT
 70
     5
  9
$DIMLWD
 70
    -2
  9
$DIMLWE
 70
    -2
  9
$DIMTMOVE
 70
     2
  9
$LUNITS
 70
     2
  9
$LUPREC
 70
     4
  9
$SKETCHINC
 40
0.1
  9
$FILLETRAD
 40
0.0
  9
$AUNITS
 70
     0
  9
$AUPREC
 70
     0
  9
$MENU
  1
.
  9
$ELEVATION
 40
0.0
  9
$PELEVATION
 40
0.0
  9
$THICKNESS
 40
0.0
  9
$LIMCHECK
 70
     0
  9
$CHAMFERA
 40
0.0
  9
$CHAMFERB
 40
0.0
  9
$CHAMFERC
 40
0.0
  9
$CHAMFERD
 40
0.0
  9
$SKPOLY
 70
     0
  9
$TDCREATE
 40
2455434.724808658
  9
$TDUCREATE
 40
2455434.391475324
  9
$TDUPDATE
 40
2458565.355904850
  9
$TDUUPDATE
 40
2458565.022571516
  9
$TDINDWG
 40
0.6439537616
  9
$TDUSRTIMER
 40
0.6439361574
  9
$USRTIMER
 70
     1
  9
$ANGBASE
 50
0.0
  9
$ANGDIR
 70
     0
  9
$PDMODE
 70
     0
  9
$PDSIZE
 40
0.0
  9
$PLINEWID
 40
0.0
  9
$SPLFRAME
 70
     0
  9
$SPLINETYPE
 70
     6
  9
$SPLINESEGS
 70
     8
  9
$HANDSEED
  5
7968
  9
$SURFTAB1
 70
     6
  9
$SURFTAB2
 70
     6
  9
$SURFTYPE
 70
     6
  9
$SURFU
 70
     6
  9
$SURFV
 70
     6
  9
$UCSBASE
  2

  9
$UCSNAME
  2

  9
$UCSORG
 10
0.0
 20
0.0
 30
0.0
  9
$UCSXDIR
 10
1.0
 20
0.0
 30
0.0
  9
$UCSYDIR
 10
0.0
 20
1.0
 30
0.0
  9
$UCSORTHOREF
  2

  9
$UCSORTHOVIEW
 70
     0
  9
$UCSORGTOP
 10
0.0
 20
0.0
 30
0.0
  9
$UCSORGBOTTOM
 10
0.0
 20
0.0
 30
0.0
  9
$UCSORGLEFT
 10
0.0
 20
0.0
 30
0.0
  9
$UCSORGRIGHT
 10
0.0
 20
0.0
 30
0.0
  9
$UCSORGFRONT
 10
0.0
 20
0.0
 30
0.0
  9
$UCSORGBACK
 10
0.0
 20
0.0
 30
0.0
  9
$PUCSBASE
  2

  9
$PUCSNAME
  2

  9
$PUCSORG
 10
0.0
 20
0.0
 30
0.0
  9
$PUCSXDIR
 10
1.0
 20
0.0
 30
0.0
  9
$PUCSYDIR
 10
0.0
 20
1.0
 30
0.0
  9
$PUCSORTHOREF
  2

  9
$PUCSORTHOVIEW
 70
     0
  9
$PUCSORGTOP
 10
0.0
 20
0.0
 30
0.0
  9
$PUCSORGBOTTOM
 10
0.0
 20
0.0
 30
0.0
  9
$PUCSORGLEFT
 10
0.0
 20
0.0
 30
0.0
  9
$PUCSORGRIGHT
 10
0.0
 20
0.0
 30
0.0
  9
$PUCSORGFRONT
 10
0.0
 20
0.0
 30
0.0
  9
$PUCSORGBACK
 10
0.0
 20
0.0
 30
0.0
  9
$USERI1
 70
     0
  9
$USERI2
 70
     0
  9
$USERI3
 70
     0
  9
$USERI4
 70
     0
  9
$USERI5
 70
     0
  9
$USERR1
 40
0.0
  9
$USERR2
 40
0.0
  9
$USERR3
 40
0.0
  9
$USERR4
 40
0.0
  9
$USERR5
 40
2.5
  9
$WORLDVIEW
 70
     1
  9
$SHADEDGE
 70
     3
  9
$SHADEDIF
 70
    70
  9
$TILEMODE
 70
     1
  9
$MAXACTVP
 70
    64
  9
$PINSBASE
 10
0.0
 20
0.0
 30
0.0
  9
$PLIMCHECK
 70
     0
  9
$PEXTMIN
 10
1.000000000000000E+20
 20
1.000000000000000E+20
 30
1.000000000000000E+20
  9
$PEXTMAX
 10
-1.000000000000000E+20
 20
-1.000000000000000E+20
 30
-1.000000000000000E+20
  9
$PLIMMIN
 10
0.0
 20
0.0
  9
$PLIMMAX
 10
12.0
 20
9.0
  9
$UNITMODE
 70
     0
  9
$VISRETAIN
 70
     1
  9
$PLINEGEN
 70
     0
  9
$PSLTSCALE
 70
     1
  9
$TREEDEPTH
 70
  3020
  9
$CMLSTYLE
  2
Standard
  9
$CMLJUST
 70
     0
  9
$CMLSCALE
 40
1.0
  9
$PROXYGRAPHICS
 70
     1
  9
$MEASUREMENT
 70
     0
  9
$CELWEIGHT
370
    -1
  9
$ENDCAPS
280
     0
  9
$JOINSTYLE
280
     0
  9
$LWDISPLAY
290
     0
  9
$INSUNITS
 70
     0
  9
$HYPERLINKBASE
  1

  9
$STYLESHEET
  1

  9
$XEDIT
290
     1
  9
$CEPSNTYPE
380
     0
  9
$PSTYLEMODE
290
     1
  9
$FINGERPRINTGUID
  2
{7BAC09DB-C4D0-41DB-8C07-4C6808ADD930}
  9
$VERSIONGUID
  2
{F590AB9C-D8B7-47E0-803E-34AC58C14176}
  9
$EXTNAMES
290
     1
  9
$PSVPSCALE
 40
0.0
  9
$OLESTARTUP
290
     0
  0
ENDSEC
  0
SECTION
  2
CLASSES
  0
CLASS
  1
ACDBDICTIONARYWDFLT
  2
AcDbDictionaryWithDefault
  3
ObjectDBX Classes
 90
        0
280
     0
281
     0
  0
CLASS
  1
MATERIAL
  2
AcDbMaterial
  3
ObjectDBX Classes
 90
     1153
280
     0
281
     0
  0
CLASS
  1
VISUALSTYLE
  2
AcDbVisualStyle
  3
ObjectDBX Classes
 90
     4095
280
     0
281
     0
  0
CLASS
  1
SCALE
  2
AcDbScale
  3
ObjectDBX Classes
 90
     1153
280
     0
281
     0
  0
CLASS
  1
TABLESTYLE
  2
AcDbTableStyle
  3
ObjectDBX Classes
 90
     4095
280
     0
281
     0
  0
CLASS
  1
MLEADERSTYLE
  2
AcDbMLeaderStyle
  3
ACDB_MLEADERSTYLE_CLASS
 90
     4095
280
     0
281
     0
  0
CLASS
  1
VLO-VL
  2
vlo_VL
  3
VL|AutoLISP based application
 90
      129
280
     0
281
     0
  0
CLASS
  1
DICTIONARYVAR
  2
AcDbDictionaryVar
  3
ObjectDBX Classes
 90
        0
280
     0
281
     0
  0
CLASS
  1
CELLSTYLEMAP
  2
AcDbCellStyleMap
  3
ObjectDBX Classes
 90
     1152
280
     0
281
     0
  0
CLASS
  1
DIMASSOC
  2
AcDbDimAssoc
  3
"AcDbDimAssoc|Product Desc:     AcDim ARX App For Dimension|Company:          Autodesk, Inc.|WEB Address:      www.autodesk.com"
 90
    32768
280
     0
281
     0
  0
CLASS
  1
SORTENTSTABLE
  2
AcDbSortentsTable
  3
ObjectDBX Classes
 90
        0
280
     0
281
     0
  0
CLASS
  1
ACDBPLACEHOLDER
  2
AcDbPlaceHolder
  3
ObjectDBX Classes
 90
        0
280
     0
281
     0
  0
CLASS
  1
LAYOUT
  2
AcDbLayout
  3
ObjectDBX Classes
 90
        0
280
     0
281
     0
  0
ENDSEC
  0
SECTION
  2
TABLES
  0
TABLE
  2
VPORT
  5
5F02
330
0
100
AcDbSymbolTable
 70
     1
  0
VPORT
  5
5F73
330
5F02
100
AcDbSymbolTableRecord
100
AcDbViewportTableRecord
  2
*ACTIVE
 70
     0
 10
0.0
 20
0.0
 11
1.0
 21
1.0
 12
1099.656726868072
 22
135.5646963333067
 13
0.0
 23
0.0
 14
0.5
 24
0.5
 15
0.5
 25
0.5
 16
0.0
 26
0.0
 36
1.0
 17
0.0
 27
0.0
 37
0.0
 40
121.4641819454933
 41
1.532623169107856
 42
50.0
 43
0.0
 44
0.0
 50
0.0
 51
0.0
 71
     0
 72
  1000
 73
     1
 74
     3
 75
     0
 76
     0
 77
     0
 78
     0
281
     0
 65
     1
110
0.0
120
0.0
130
0.0
111
1.0
121
0.0
131
0.0
112
0.0
122
1.0
132
0.0
 79
     0
146
0.0
  0
ENDTAB
  0
TABLE
  2
LTYPE
  5
5EFF
330
0
100
AcDbSymbolTable
 70
     4
  0
LTYPE
  5
5F5C
330
5EFF
100
AcDbSymbolTableRecord
100
AcDbLinetypeTableRecord
  2
ByBlock
 70
     0
  3

 72
    65
 73
     0
 40
0.0
  0
LTYPE
  5
5F5D
330
5EFF
100
AcDbSymbolTableRecord
100
AcDbLinetypeTableRecord
  2
ByLayer
 70
     0
  3

 72
    65
 73
     0
 40
0.0
  0
LTYPE
  5
5F5E
330
5EFF
100
AcDbSymbolTableRecord
100
AcDbLinetypeTableRecord
  2
CONTINUOUS
 70
     0
  3
Solid line
 72
    65
 73
     0
 40
0.0
  0
LTYPE
  5
5F74
330
5EFF
100
AcDbSymbolTableRecord
100
AcDbLinetypeTableRecord
  2
CENTER2
 70
     0
  3
Center (.5x) ___ _ ___ _ ___ _ ___ _ ___ _ ___
 72
    65
 73
     4
 40
28.575
 49
19.05
 74
     0
 49
-3.174999999999998
 74
     0
 49
3.174999999999998
 74
     0
 49
-3.174999999999998
 74
     0
  0
LTYPE
  5
5F75
330
5EFF
100
AcDbSymbolTableRecord
100
AcDbLinetypeTableRecord
  2
HIDDEN2
 70
     0
  3
Hidden (.5x) _ _ _ _ _ _ _ _ _ _ _ _ _ _ _ _ _
 72
    65
 73
     2
 40
4.762499999999998
 49
3.174999999999998
 74
     0
 49
-1.587499999999999
 74
     0
  0
LTYPE
  5
776E
330
5EFF
100
AcDbSymbolTableRecord
100
AcDbLinetypeTableRecord
  2
AM_ISO02W050
 70
     0
  3
__ __ __ __ __ __ __ __ __ __ __ __ __ __ __
 72
    65
 73
     2
 40
7.5
 49
6.0
 74
     0
 49
-1.5
 74
     0
  0
ENDTAB
  0
TABLE
  2
LAYER
  5
5EFC
102
{ACAD_XDICTIONARY
360
61B7
102
}
330
0
100
AcDbSymbolTable
 70
     9
  0
LAYER
  5
5F56
102
{ACAD_XDICTIONARY
360
60F4
102
}
330
5EFC
100
AcDbSymbolTableRecord
100
AcDbLayerTableRecord
  2
0
 70
     0
 62
     7
  6
CONTINUOUS
370
    -3
390
5F09
  0
LAYER
  5
5F72
102
{ACAD_XDICTIONARY
360
60F6
102
}
330
5EFC
100
AcDbSymbolTableRecord
100
AcDbLayerTableRecord
  2
标注
 70
     0
 62
    80
  6
CONTINUOUS
370
    -3
390
5F09
  0
LAYER
  5
5F7D
102
{ACAD_XDICTIONARY
360
60F8
102
}
330
5EFC
100
AcDbSymbolTableRecord
100
AcDbLayerTableRecord
  2
中心线
 70
     0
 62
     1
  6
CENTER2
370
    -3
390
5F09
  0
LAYER
  5
5F7E
102
{ACAD_XDICTIONARY
360
60FA
102
}
330
5EFC
100
AcDbSymbolTableRecord
100
AcDbLayerTableRecord
  2
虚线
 70
     0
 62
     4
  6
HIDDEN2
370
    -3
390
5F09
  0
LAYER
  5
5F7F
330
5EFC
100
AcDbSymbolTableRecord
100
AcDbLayerTableRecord
  2
DEFPOINTS
 70
     0
 62
     7
  6
CONTINUOUS
290
     0
370
    -3
390
5F09
  0
LAYER
  5
5F80
102
{ACAD_XDICTIONARY
360
60FC
102
}
330
5EFC
100
AcDbSymbolTableRecord
100
AcDbLayerTableRecord
  2
细实线
 70
     0
 62
     7
  6
CONTINUOUS
370
    -3
390
5F09
  0
LAYER
  5
61B1
102
{ACAD_XDICTIONARY
360
61B2
102
}
330
5EFC
100
AcDbSymbolTableRecord
100
AcDbLayerTableRecord
  2
粗实线
 70
     0
 62
     7
  6
CONTINUOUS
370
    35
390
5F09
  0
LAYER
  5
6B9C
102
{ACAD_XDICTIONARY
360
6B9D
102
}
330
5EFC
100
AcDbSymbolTableRecord
100
AcDbLayerTableRecord
  2
截面层
 70
     0
 62
     6
  6
CONTINUOUS
370
    13
390
5F09
  0
LAYER
  5
776F
330
5EFC
100
AcDbSymbolTableRecord
100
AcDbLayerTableRecord
  2
标注线
 70
     0
 62
     3
  6
CONTINUOUS
370
     9
390
5F09
  0
ENDTAB
  0
TABLE
  2
STYLE
  5
5EFD
330
0
100
AcDbSymbolTable
 70
     2
  0
STYLE
  5
5F57
330
5EFD
100
AcDbSymbolTableRecord
100
AcDbTextStyleTableRecord
  2
STANDARD
 70
     0
 40
0.0
 41
1.0
 50
0.0
 71
     0
 42
0.2
  3
arial.ttf
  4

1001
ACAD
1000
Arial
1071
       34
  0
STYLE
  5
7201
330
5EFD
100
AcDbSymbolTableRecord
100
AcDbTextStyleTableRecord
  2
Arial
 70
     0
 40
0.0
 41
1.0
 50
0.0
 71
     0
 42
0.2
  3
arial.ttf
  4

1001
ACAD
1000
Arial
1071
       34
  0
ENDTAB
  0
TABLE
  2
VIEW
  5
5F00
330
0
100
AcDbSymbolTable
 70
     0
  0
ENDTAB
  0
TABLE
  2
UCS
  5
5F01
330
0
100
AcDbSymbolTable
 70
     0
  0
ENDTAB
  0
TABLE
  2
APPID
  5
5F03
330
0
100
AcDbSymbolTable
 70
    28
  0
APPID
  5
5F58
330
5F03
100
AcDbSymbolTableRecord
100
AcDbRegAppTableRecord
  2
ACAD
 70
     0
  0
APPID
  5
5F5F
330
5F03
100
AcDbSymbolTableRecord
100
AcDbRegAppTableRecord
  2
ACADANNOTATIVE
 70
     0
  0
APPID
  5
5F69
330
5F03
100
AcDbSymbolTableRecord
100
AcDbRegAppTableRecord
  2
ACAD_MLEADERVER
 70
     0
  0
APPID
  5
5F84
330
5F03
100
AcDbSymbolTableRecord
100
AcDbRegAppTableRecord
  2
ACAECLAYERSTANDARD
 70
     0
  0
APPID
  5
5F85
330
5F03
100
AcDbSymbolTableRecord
100
AcDbRegAppTableRecord
  2
ACAD_DSTYLE_DIMEXT_LENGTH
 70
     0
  0
APPID
  5
5F86
330
5F03
100
AcDbSymbolTableRecord
100
AcDbRegAppTableRecord
  2
ACAD_DSTYLE_DIMEXT_ENABLED
 70
     0
  0
APPID
  5
5F87
330
5F03
100
AcDbSymbolTableRecord
100
AcDbRegAppTableRecord
  2
ACAD_DSTYLE_DIMJOGGED_JOGA
 70
     0
  0
APPID
  5
5F88
330
5F03
100
AcDbSymbolTableRecord
100
AcDbRegAppTableRecord
  2
ACAD_DSTYLE_DIMARC_LENGTH_
 70
     0
  0
APPID
  5
5F89
330
5F03
100
AcDbSymbolTableRecord
100
AcDbRegAppTableRecord
  2
ACAD_PSEXT
 70
     0
  0
APPID
  5
5F8A
330
5F03
100
AcDbSymbolTableRecord
100
AcDbRegAppTableRecord
  2
MCAD_NO_VIS
 70
     0
  0
APPID
  5
5F8B
330
5F03
100
AcDbSymbolTableRecord
100
AcDbRegAppTableRecord
  2
ACAD_TEMP_GRAPHIC
 70
     0
  0
APPID
  5
5F8C
330
5F03
100
AcDbSymbolTableRecord
100
AcDbRegAppTableRecord
  2
AD_DRAW
 70
     0
  0
APPID
  5
5F8D
330
5F03
100
AcDbSymbolTableRecord
100
AcDbRegAppTableRecord
  2
ACATTRIBSERVICES
 70
     0
  0
APPID
  5
5F8E
330
5F03
100
AcDbSymbolTableRecord
100
AcDbRegAppTableRecord
  2
DESIGNERASSEMBLIES
 70
     0
  0
APPID
  5
5F8F
330
5F03
100
AcDbSymbolTableRecord
100
AcDbRegAppTableRecord
  2
ACADM_DIM_EDIT
 70
     0
  0
APPID
  5
5F90
330
5F03
100
AcDbSymbolTableRecord
100
AcDbRegAppTableRecord
  2
AMDT_DM_ADJ
 70
     0
  0
APPID
  5
5F91
330
5F03
100
AcDbSymbolTableRecord
100
AcDbRegAppTableRecord
  2
ACAD_DSTYLE_DIMJAG
 70
     0
  0
APPID
  5
5F92
330
5F03
100
AcDbSymbolTableRecord
100
AcDbRegAppTableRecord
  2
ACAD_DSTYLE_DIMBREAK
 70
     0
  0
APPID
  5
5F93
330
5F03
100
AcDbSymbolTableRecord
100
AcDbRegAppTableRecord
  2
ACAD_DSTYLE_DIMTALN
 70
     0
  0
APPID
  5
5F94
330
5F03
100
AcDbSymbolTableRecord
100
AcDbRegAppTableRecord
  2
GENIUS_GENODEF_13
 70
     0
  0
APPID
  5
5F95
330
5F03
100
AcDbSymbolTableRecord
100
AcDbRegAppTableRecord
  2
GENIUS_GENOBJ-N-FIL_13
 70
     0
  0
APPID
  5
5F96
330
5F03
100
AcDbSymbolTableRecord
100
AcDbRegAppTableRecord
  2
ACAD_EXEMPT_FROM_CAD_STANDARDS
 70
     0
  0
APPID
  5
5F97
330
5F03
100
AcDbSymbolTableRecord
100
AcDbRegAppTableRecord
  2
ACAD_DSTYLE_DIM_LINETYPE
 70
     0
  0
APPID
  5
5F98
330
5F03
100
AcDbSymbolTableRecord
100
AcDbRegAppTableRecord
  2
ACAD_DSTYLE_DIM_EXT1_LINETYPE
 70
     0
  0
APPID
  5
5F99
330
5F03
100
AcDbSymbolTableRecord
100
AcDbRegAppTableRecord
  2
ACAD_DSTYLE_DIM_EXT2_LINETYPE
 70
     0
  0
APPID
  5
5F9A
330
5F03
100
AcDbSymbolTableRecord
100
AcDbRegAppTableRecord
  2
ACAD_DSTYLE_DIMRADIAL_EXTENSION
 70
     0
  0
APPID
  5
6488
330
5F03
100
AcDbSymbolTableRecord
100
AcDbRegAppTableRecord
  2
AcadAnnoPO
 70
     0
  0
APPID
  5
7772
330
5F03
100
AcDbSymbolTableRecord
100
AcDbRegAppTableRecord
  2
ACAD_DSTYLE_DIMJOGGED_JOGANGLE_SYMBOL
 70
     0
  0
ENDTAB
  0
TABLE
  2
DIMSTYLE
  5
5F04
330
0
100
AcDbSymbolTable
 70
     8
100
AcDbDimStyleTable
 71
     2
340
5F9B
340
5F59
  0
DIMSTYLE
105
5F59
330
5F04
100
AcDbSymbolTableRecord
100
AcDbDimStyleTableRecord
  2
STANDARD
 70
     0
 41
0.65
 73
     0
 74
     0
140
0.65
176
     3
177
     3
178
     3
271
     3
272
     3
276
     2
277
     5
279
     2
284
     8
285
     8
286
     8
340
5F57
371
    13
372
    13
1001
ACAD_DSTYLE_DIMJAG
1070
   388
1040
1.5
1001
ACAD_DSTYLE_DIMTALN
1070
   392
1070
     0
1001
ACAD_DSTYLE_DIM_LINETYPE
1070
   380
1005
5F5E
1001
ACAD_DSTYLE_DIM_EXT1_LINETYPE
1070
   381
1005
5F5E
1001
ACAD_DSTYLE_DIM_EXT2_LINETYPE
1070
   382
1005
5F5E
  0
DIMSTYLE
105
5F9B
102
{ACAD_REACTORS
330
782E
330
783C
330
784A
330
7858
330
7866
330
7894
330
78A2
330
78B0
330
78BA
330
78C4
102
}
330
5F04
100
AcDbSymbolTableRecord
100
AcDbDimStyleTableRecord
  2
副本STANDARD
 70
     0
  3
"
  4
"
 41
0.65
 42
0.88
 43
0.015
 44
0.32
 73
     0
 74
     0
 78
     8
140
0.65
143
0.03937
147
0.3
171
     1
172
     1
176
   256
177
   256
178
   256
271
     3
272
     3
274
     1
276
     2
277
     5
279
     2
284
     8
285
     8
286
     8
340
5F57
1001
ACAD_DSTYLE_DIMJAG
1070
   388
1040
1.5
1001
ACAD_DSTYLE_DIMTALN
1070
   392
1070
     0
  0
DIMSTYLE
105
6F8A
330
5F04
100
AcDbSymbolTableRecord
100
AcDbDimStyleTableRecord
  2
毫米英寸Standard
 70
     0
  3
mm
  4
"
 41
12.0
 42
18.0
 44
6.0
 73
     0
 74
     0
 78
     8
 79
     2
140
12.0
143
0.03937
147
6.0
170
     1
171
     3
172
     1
176
   256
177
   256
178
   256
179
     1
271
     1
272
     1
273
     7
274
     3
278
    44
340
5F57
1001
ACAD_DSTYLE_DIMBREAK
1070
   391
1040
0.125
1001
ACAD_DSTYLE_DIMJAG
1070
   388
1040
1.5
1001
ACAD_DSTYLE_DIMTALN
1070
   392
1070
     0
  0
DIMSTYLE
105
6F8B
330
5F04
100
AcDbSymbolTableRecord
100
AcDbDimStyleTableRecord
  2
中14+
 70
     0
  4
"
 41
14.0
 42
10.0
 43
1.0
 44
2.0
 73
     0
 74
     0
 78
     8
140
14.0
141
2.0
143
0.03937007874016
147
5.0
171
     3
172
     1
179
     1
271
     1
272
     1
273
     7
274
     3
278
    44
283
     0
284
     8
340
5F57
1001
ACAD_DSTYLE_DIMJAG
1070
   388
1040
1.5
1001
ACAD_DSTYLE_DIMBREAK
1070
   391
1040
0.2
1001
ACAD_DSTYLE_DIMTALN
1070
   392
1070
     0
  0
DIMSTYLE
105
6F8C
330
5F04
100
AcDbSymbolTableRecord
100
AcDbDimStyleTableRecord
  2
毫米英寸
 70
     0
  3
mm
  4
"
 41
18.0
 42
20.0
 43
3.75
 44
5.0
 45
0.0005
 73
     0
 74
     0
 78
     8
140
18.0
141
2.5
143
0.03937007874
147
2.0
170
     1
171
     3
172
     1
176
   256
177
   256
178
   256
179
     1
271
     1
272
     1
273
     7
274
     3
276
     2
283
     0
284
     8
285
    12
340
5F57
371
     9
372
     9
1001
ACAD_DSTYLE_DIMBREAK
1070
   391
1040
3.75
1001
ACAD_DSTYLE_DIMJAG
1070
   388
1040
1.5
1001
ACAD_DSTYLE_DIMTALN
1070
   392
1070
     0
1001
ACAD_DSTYLE_DIMEXT_LENGTH
1070
   378
1040
8.0
1001
ACAD_DSTYLE_DIM_LINETYPE
1070
   380
1005
5F5D
  0
DIMSTYLE
105
7202
330
5F04
100
AcDbSymbolTableRecord
100
AcDbDimStyleTableRecord
  2
英寸
 70
     0
  3
"
  4
"
 41
16.0
 42
22.0
 44
8.0
 73
     0
 74
     0
 78
     8
 79
     2
140
16.0
143
0.03937
144
0.03937007874
147
5.0
171
     3
172
     1
176
   256
177
   256
178
   256
179
     1
271
     3
272
     3
273
     7
274
     3
276
     2
277
     5
278
    44
340
7201
1001
ACAD_DSTYLE_DIMBREAK
1070
   391
1040
0.125
1001
ACAD_DSTYLE_DIMJAG
1070
   388
1040
1.5
1001
ACAD_DSTYLE_DIMTALN
1070
   392
1070
     0
1001
ACAD_DSTYLE_DIMEXT_LENGTH
1070
   378
1040
8.0
  0
DIMSTYLE
105
7770
330
5F04
100
AcDbSymbolTableRecord
100
AcDbDimStyleTableRecord
  2
ISO-25
 70
     0
 41
17.0
 42
10.0
 43
3.75
 44
10.0
 73
     0
 74
     0
 78
     8
 79
     2
140
17.0
141
2.5
143
0.03937007874016
147
4.0
171
     3
172
     1
176
   256
177
   256
178
     3
271
     1
272
     1
274
     3
283
     0
284
     8
340
5F57
371
     9
372
     9
1001
ACAD_DSTYLE_DIMJAG
1070
   388
1040
1.5
1001
ACAD_DSTYLE_DIMTALN
1070
   392
1070
     0
1001
ACAD_DSTYLE_DIMEXT_LENGTH
1070
   378
1040
1.25
1001
ACAD_DSTYLE_DIMJOGGED_JOGANGLE_SYMBOL
1070
   384
1040
1.570796326794896
  0
DIMSTYLE
105
7771
330
5F04
100
AcDbSymbolTableRecord
100
AcDbDimStyleTableRecord
  2
副本ISO-25
 70
     0
 41
15.0
 42
0.625
 43
3.75
 44
1.25
 73
     0
 77
     1
 78
     8
140
15.0
141
2.5
143
0.03937007874016
147
0.625
170
     1
171
     1
172
     1
176
     6
177
     6
271
     2
272
     2
274
     1
278
    44
283
     0
284
     8
340
5F57
371
    15
372
    15
  0
ENDTAB
  0
TABLE
  2
BLOCK_RECORD
  5
5EFB
330
0
100
AcDbSymbolTable
 70
    77
  0
BLOCK_RECORD
  5
5F6E
102
{ACAD_XDICTIONARY
360
654F
102
}
330
5EFB
100
AcDbSymbolTableRecord
100
AcDbBlockTableRecord
  2
*Model_Space
340
5F71
  0
BLOCK_RECORD
  5
5F6A
330
5EFB
100
AcDbSymbolTableRecord
100
AcDbBlockTableRecord
  2
*Paper_Space
340
5F6D
  0
BLOCK_RECORD
  5
6D74
330
5EFB
100
AcDbSymbolTableRecord
100
AcDbBlockTableRecord
  2
*D0
340
0
  0
BLOCK_RECORD
  5
6D82
330
5EFB
100
AcDbSymbolTableRecord
100
AcDbBlockTableRecord
  2
*D1
340
0
  0
BLOCK_RECORD
  5
6D90
330
5EFB
100
AcDbSymbolTableRecord
100
AcDbBlockTableRecord
  2
*D2
340
0
  0
BLOCK_RECORD
  5
6DAF
330
5EFB
100
AcDbSymbolTableRecord
100
AcDbBlockTableRecord
  2
*D3
340
0
  0
BLOCK_RECORD
  5
6DB9
330
5EFB
100
AcDbSymbolTableRecord
100
AcDbBlockTableRecord
  2
*D4
340
0
  0
BLOCK_RECORD
  5
6DC3
330
5EFB
100
AcDbSymbolTableRecord
100
AcDbBlockTableRecord
  2
*D5
340
0
  0
BLOCK_RECORD
  5
6DF7
330
5EFB
100
AcDbSymbolTableRecord
100
AcDbBlockTableRecord
  2
*D6
340
0
  0
BLOCK_RECORD
  5
6E05
330
5EFB
100
AcDbSymbolTableRecord
100
AcDbBlockTableRecord
  2
*D7
340
0
  0
BLOCK_RECORD
  5
6E13
330
5EFB
100
AcDbSymbolTableRecord
100
AcDbBlockTableRecord
  2
*D8
340
0
  0
BLOCK_RECORD
  5
6E21
330
5EFB
100
AcDbSymbolTableRecord
100
AcDbBlockTableRecord
  2
*D9
340
0
  0
BLOCK_RECORD
  5
6E2F
330
5EFB
100
AcDbSymbolTableRecord
100
AcDbBlockTableRecord
  2
*D10
340
0
  0
BLOCK_RECORD
  5
6E3D
330
5EFB
100
AcDbSymbolTableRecord
100
AcDbBlockTableRecord
  2
*D11
340
0
  0
BLOCK_RECORD
  5
6E4B
330
5EFB
100
AcDbSymbolTableRecord
100
AcDbBlockTableRecord
  2
*D12
340
0
  0
BLOCK_RECORD
  5
6E59
330
5EFB
100
AcDbSymbolTableRecord
100
AcDbBlockTableRecord
  2
*D13
340
0
  0
BLOCK_RECORD
  5
6E7B
330
5EFB
100
AcDbSymbolTableRecord
100
AcDbBlockTableRecord
  2
*D14
340
0
  0
BLOCK_RECORD
  5
6E89
330
5EFB
100
AcDbSymbolTableRecord
100
AcDbBlockTableRecord
  2
*D15
340
0
  0
BLOCK_RECORD
  5
6E93
330
5EFB
100
AcDbSymbolTableRecord
100
AcDbBlockTableRecord
  2
*D16
340
0
  0
BLOCK_RECORD
  5
70CA
330
5EFB
100
AcDbSymbolTableRecord
100
AcDbBlockTableRecord
  2
*D17
340
0
  0
BLOCK_RECORD
  5
70D8
330
5EFB
100
AcDbSymbolTableRecord
100
AcDbBlockTableRecord
  2
*D18
340
0
  0
BLOCK_RECORD
  5
70E6
330
5EFB
100
AcDbSymbolTableRecord
100
AcDbBlockTableRecord
  2
*D19
340
0
  0
BLOCK_RECORD
  5
7101
330
5EFB
100
AcDbSymbolTableRecord
100
AcDbBlockTableRecord
  2
*D20
340
0
  0
BLOCK_RECORD
  5
710F
330
5EFB
100
AcDbSymbolTableRecord
100
AcDbBlockTableRecord
  2
*D21
340
0
  0
BLOCK_RECORD
  5
711D
330
5EFB
100
AcDbSymbolTableRecord
100
AcDbBlockTableRecord
  2
*D22
340
0
  0
BLOCK_RECORD
  5
712B
330
5EFB
100
AcDbSymbolTableRecord
100
AcDbBlockTableRecord
  2
*D23
340
0
  0
BLOCK_RECORD
  5
7139
330
5EFB
100
AcDbSymbolTableRecord
100
AcDbBlockTableRecord
  2
*D24
340
0
  0
BLOCK_RECORD
  5
7147
330
5EFB
100
AcDbSymbolTableRecord
100
AcDbBlockTableRecord
  2
*D25
340
0
  0
BLOCK_RECORD
  5
7155
330
5EFB
100
AcDbSymbolTableRecord
100
AcDbBlockTableRecord
  2
*D26
340
0
  0
BLOCK_RECORD
  5
7163
330
5EFB
100
AcDbSymbolTableRecord
100
AcDbBlockTableRecord
  2
*D27
340
0
  0
BLOCK_RECORD
  5
731E
330
5EFB
100
AcDbSymbolTableRecord
100
AcDbBlockTableRecord
  2
*D28
340
0
  0
BLOCK_RECORD
  5
732C
330
5EFB
100
AcDbSymbolTableRecord
100
AcDbBlockTableRecord
  2
*D29
340
0
  0
BLOCK_RECORD
  5
733A
330
5EFB
100
AcDbSymbolTableRecord
100
AcDbBlockTableRecord
  2
*D30
340
0
  0
BLOCK_RECORD
  5
7348
330
5EFB
100
AcDbSymbolTableRecord
100
AcDbBlockTableRecord
  2
*D31
340
0
  0
BLOCK_RECORD
  5
7360
330
5EFB
100
AcDbSymbolTableRecord
100
AcDbBlockTableRecord
  2
*D32
340
0
  0
BLOCK_RECORD
  5
736A
330
5EFB
100
AcDbSymbolTableRecord
100
AcDbBlockTableRecord
  2
*D33
340
0
  0
BLOCK_RECORD
  5
7385
330
5EFB
100
AcDbSymbolTableRecord
100
AcDbBlockTableRecord
  2
*D34
340
0
  0
BLOCK_RECORD
  5
7393
330
5EFB
100
AcDbSymbolTableRecord
100
AcDbBlockTableRecord
  2
*D35
340
0
  0
BLOCK_RECORD
  5
73A1
330
5EFB
100
AcDbSymbolTableRecord
100
AcDbBlockTableRecord
  2
*D36
340
0
  0
BLOCK_RECORD
  5
73AF
330
5EFB
100
AcDbSymbolTableRecord
100
AcDbBlockTableRecord
  2
*D37
340
0
  0
BLOCK_RECORD
  5
73BD
330
5EFB
100
AcDbSymbolTableRecord
100
AcDbBlockTableRecord
  2
*D38
340
0
  0
BLOCK_RECORD
  5
73CB
330
5EFB
100
AcDbSymbolTableRecord
100
AcDbBlockTableRecord
  2
*D39
340
0
  0
BLOCK_RECORD
  5
73D9
330
5EFB
100
AcDbSymbolTableRecord
100
AcDbBlockTableRecord
  2
*D40
340
0
  0
BLOCK_RECORD
  5
73E7
330
5EFB
100
AcDbSymbolTableRecord
100
AcDbBlockTableRecord
  2
*D41
340
0
  0
BLOCK_RECORD
  5
7409
330
5EFB
100
AcDbSymbolTableRecord
100
AcDbBlockTableRecord
  2
*D42
340
0
  0
BLOCK_RECORD
  5
7421
330
5EFB
100
AcDbSymbolTableRecord
100
AcDbBlockTableRecord
  2
*D43
340
0
  0
BLOCK_RECORD
  5
742B
330
5EFB
100
AcDbSymbolTableRecord
100
AcDbBlockTableRecord
  2
*D44
340
0
  0
BLOCK_RECORD
  5
7435
330
5EFB
100
AcDbSymbolTableRecord
100
AcDbBlockTableRecord
  2
*D45
340
0
  0
BLOCK_RECORD
  5
74D3
330
5EFB
100
AcDbSymbolTableRecord
100
AcDbBlockTableRecord
  2
*D46
340
0
  0
BLOCK_RECORD
  5
74E0
330
5EFB
100
AcDbSymbolTableRecord
100
AcDbBlockTableRecord
  2
*D47
340
0
  0
BLOCK_RECORD
  5
74ED
330
5EFB
100
AcDbSymbolTableRecord
100
AcDbBlockTableRecord
  2
*D48
340
0
  0
BLOCK_RECORD
  5
75A3
330
5EFB
100
AcDbSymbolTableRecord
100
AcDbBlockTableRecord
  2
*D49
340
0
  0
BLOCK_RECORD
  5
75B0
330
5EFB
100
AcDbSymbolTableRecord
100
AcDbBlockTableRecord
  2
*D50
340
0
  0
BLOCK_RECORD
  5
75BD
330
5EFB
100
AcDbSymbolTableRecord
100
AcDbBlockTableRecord
  2
*D51
340
0
  0
BLOCK_RECORD
  5
75CA
330
5EFB
100
AcDbSymbolTableRecord
100
AcDbBlockTableRecord
  2
*D52
340
0
  0
BLOCK_RECORD
  5
75D7
330
5EFB
100
AcDbSymbolTableRecord
100
AcDbBlockTableRecord
  2
*D53
340
0
  0
BLOCK_RECORD
  5
75E4
330
5EFB
100
AcDbSymbolTableRecord
100
AcDbBlockTableRecord
  2
*D54
340
0
  0
BLOCK_RECORD
  5
75F1
330
5EFB
100
AcDbSymbolTableRecord
100
AcDbBlockTableRecord
  2
*D55
340
0
  0
BLOCK_RECORD
  5
75FE
330
5EFB
100
AcDbSymbolTableRecord
100
AcDbBlockTableRecord
  2
*D56
340
0
  0
BLOCK_RECORD
  5
760B
330
5EFB
100
AcDbSymbolTableRecord
100
AcDbBlockTableRecord
  2
*D57
340
0
  0
BLOCK_RECORD
  5
7618
330
5EFB
100
AcDbSymbolTableRecord
100
AcDbBlockTableRecord
  2
*D58
340
0
  0
BLOCK_RECORD
  5
7621
330
5EFB
100
AcDbSymbolTableRecord
100
AcDbBlockTableRecord
  2
*D59
340
0
  0
BLOCK_RECORD
  5
7699
330
5EFB
100
AcDbSymbolTableRecord
100
AcDbBlockTableRecord
  2
*D60
340
0
  0
BLOCK_RECORD
  5
76A6
330
5EFB
100
AcDbSymbolTableRecord
100
AcDbBlockTableRecord
  2
*D61
340
0
  0
BLOCK_RECORD
  5
76B3
330
5EFB
100
AcDbSymbolTableRecord
100
AcDbBlockTableRecord
  2
*D62
340
0
  0
BLOCK_RECORD
  5
76C0
330
5EFB
100
AcDbSymbolTableRecord
100
AcDbBlockTableRecord
  2
*D63
340
0
  0
BLOCK_RECORD
  5
76CD
330
5EFB
100
AcDbSymbolTableRecord
100
AcDbBlockTableRecord
  2
*D64
340
0
  0
BLOCK_RECORD
  5
76D6
330
5EFB
100
AcDbSymbolTableRecord
100
AcDbBlockTableRecord
  2
*D65
340
0
  0
BLOCK_RECORD
  5
7739
330
5EFB
100
AcDbSymbolTableRecord
100
AcDbBlockTableRecord
  2
*D66
340
0
  0
BLOCK_RECORD
  5
782F
330
5EFB
100
AcDbSymbolTableRecord
100
AcDbBlockTableRecord
  2
*D67
340
0
  0
BLOCK_RECORD
  5
783D
330
5EFB
100
AcDbSymbolTableRecord
100
AcDbBlockTableRecord
  2
*D68
340
0
  0
BLOCK_RECORD
  5
784B
330
5EFB
100
AcDbSymbolTableRecord
100
AcDbBlockTableRecord
  2
*D69
340
0
  0
BLOCK_RECORD
  5
7859
330
5EFB
100
AcDbSymbolTableRecord
100
AcDbBlockTableRecord
  2
*D70
340
0
  0
BLOCK_RECORD
  5
7867
330
5EFB
100
AcDbSymbolTableRecord
100
AcDbBlockTableRecord
  2
*D71
340
0
  0
BLOCK_RECORD
  5
7895
330
5EFB
100
AcDbSymbolTableRecord
100
AcDbBlockTableRecord
  2
*D72
340
0
  0
BLOCK_RECORD
  5
78A3
330
5EFB
100
AcDbSymbolTableRecord
100
AcDbBlockTableRecord
  2
*D73
340
0
  0
BLOCK_RECORD
  5
78B1
330
5EFB
100
AcDbSymbolTableRecord
100
AcDbBlockTableRecord
  2
*D74
340
0
  0
BLOCK_RECORD
  5
78BB
330
5EFB
100
AcDbSymbolTableRecord
100
AcDbBlockTableRecord
  2
*D75
340
0
  0
BLOCK_RECORD
  5
78C5
330
5EFB
100
AcDbSymbolTableRecord
100
AcDbBlockTableRecord
  2
*D76
340
0
  0
ENDTAB
  0
ENDSEC
  0
SECTION
  2
BLOCKS
  0
BLOCK
  5
5F6F
330
5F6E
100
AcDbEntity
  8
0
100
AcDbBlockBegin
  2
*Model_Space
 70
     0
 10
0.0
 20
0.0
 30
0.0
  3
*Model_Space
  1

  0
ENDBLK
  5
5F70
330
5F6E
100
AcDbEntity
  8
0
100
AcDbBlockEnd
  0
BLOCK
  5
5F6B
330
5F6A
100
AcDbEntity
 67
     1
  8
0
100
AcDbBlockBegin
  2
*Paper_Space
 70
     0
 10
0.0
 20
0.0
 30
0.0
  3
*Paper_Space
  1

  0
ENDBLK
  5
5F6C
330
5F6A
100
AcDbEntity
 67
     1
  8
0
100
AcDbBlockEnd
  0
BLOCK
  5
6D75
330
6D74
100
AcDbEntity
  8
0
100
AcDbBlockBegin
  2
*D0
 70
     1
 10
0.0
 20
0.0
 30
0.0
  3
*D0
  1

  0
LINE
  5
6EA8
330
6D74
100
AcDbEntity
  8
标注
370
    -2
100
AcDbLine
 10
1010.232169094564
 20
111.8880736471611
 30
0.0
 11
1010.232169094564
 21
109.3331919395887
 31
0.0
  0
LINE
  5
6EA9
330
6D74
100
AcDbEntity
  8
标注
370
    -2
100
AcDbLine
 10
1038.889649409404
 20
111.8880736471611
 30
0.0
 11
1038.889649409404
 21
109.3331919395887
 31
0.0
  0
LINE
  5
6EAA
330
6D74
100
AcDbEntity
  8
标注
370
    -2
100
AcDbLine
 10
1010.882169094564
 20
109.6531919395888
 30
0.0
 11
1022.872010889092
 21
109.6531919395888
 31
0.0
  0
LINE
  5
6EAB
330
6D74
100
AcDbEntity
  8
标注
370
    -2
100
AcDbLine
 10
1038.239649409404
 20
109.6531919395888
 30
0.0
 11
1026.249807614876
 21
109.6531919395888
 31
0.0
  0
SOLID
  5
6EAC
330
6D74
100
AcDbEntity
  8
标注
100
AcDbTrace
 10
1010.882169094564
 20
109.7615252729221
 30
0.0
 11
1010.882169094564
 21
109.5448586062554
 31
0.0
 12
1010.232169094564
 22
109.6531919395888
 32
0.0
 13
1010.232169094564
 23
109.6531919395888
 33
0.0
  0
SOLID
  5
6EAD
330
6D74
100
AcDbEntity
  8
标注
100
AcDbTrace
 10
1038.239649409404
 20
109.7615252729221
 30
0.0
 11
1038.239649409404
 21
109.5448586062554
 31
0.0
 12
1038.889649409404
 22
109.6531919395888
 32
0.0
 13
1038.889649409404
 23
109.6531919395888
 33
0.0
  0
MTEXT
  5
6EAE
330
6D74
100
AcDbEntity
  8
标注
100
AcDbMText
 10
1024.560909251984
 20
109.6531919395888
 30
0.0
 40
0.65
 41
0.0
 71
     5
 72
     1
  1
\A1;28 5/8"
 73
     1
 44
1.0
1001
ACAD
1000
MTEXTBEGIN
1070
    73
1070
     1
1070
    44
1040
1.0
1070
    74
1070
     0
1000
MTEXTEND
  0
POINT
  5
6EAF
330
6D74
100
AcDbEntity
  8
DEFPOINTS
 62
     0
100
AcDbPoint
 10
1010.232169094564
 20
112.7680736471611
 30
0.0
  0
POINT
  5
6EB0
330
6D74
100
AcDbEntity
  8
DEFPOINTS
 62
     0
100
AcDbPoint
 10
1038.889649409404
 20
112.7680736471611
 30
0.0
  0
POINT
  5
6EB1
330
6D74
100
AcDbEntity
  8
DEFPOINTS
 62
     0
100
AcDbPoint
 10
1038.889649409404
 20
109.6531919395888
 30
0.0
  0
ENDBLK
  5
6D76
330
6D74
100
AcDbEntity
  8
0
100
AcDbBlockEnd
  0
BLOCK
  5
6D83
330
6D82
100
AcDbEntity
  8
0
100
AcDbBlockBegin
  2
*D1
 70
     1
 10
0.0
 20
0.0
 30
0.0
  3
*D1
  1

  0
LINE
  5
6EB2
330
6D82
100
AcDbEntity
  8
标注
370
    -2
100
AcDbLine
 10
1039.297208464536
 20
112.2956327022929
 30
0.0
 11
1041.352195043713
 21
112.2956327022929
 31
0.0
  0
LINE
  5
6EB3
330
6D82
100
AcDbEntity
  8
标注
370
    -2
100
AcDbLine
 10
1039.297208464536
 20
128.4531130171908
 30
0.0
 11
1041.352195043713
 21
128.4531130171908
 31
0.0
  0
LINE
  5
6EB4
330
6D82
100
AcDbEntity
  8
标注
370
    -2
100
AcDbLine
 10
1041.032195043713
 20
112.9456327022929
 30
0.0
 11
1041.032195043713
 21
118.7216102403694
 31
0.0
  0
LINE
  5
6EB5
330
6D82
100
AcDbEntity
  8
标注
370
    -2
100
AcDbLine
 10
1041.032195043713
 20
127.8031130171908
 30
0.0
 11
1041.032195043713
 21
122.0271354791143
 31
0.0
  0
SOLID
  5
6EB6
330
6D82
100
AcDbEntity
  8
标注
100
AcDbTrace
 10
1040.92386171038
 20
112.9456327022929
 30
0.0
 11
1041.140528377046
 21
112.9456327022929
 31
0.0
 12
1041.032195043713
 22
112.2956327022929
 32
0.0
 13
1041.032195043713
 23
112.2956327022929
 33
0.0
  0
SOLID
  5
6EB7
330
6D82
100
AcDbEntity
  8
标注
100
AcDbTrace
 10
1040.92386171038
 20
127.8031130171908
 30
0.0
 11
1041.140528377046
 21
127.8031130171908
 31
0.0
 12
1041.032195043713
 22
128.4531130171908
 32
0.0
 13
1041.032195043713
 23
128.4531130171908
 33
0.0
  0
MTEXT
  5
6EB8
330
6D82
100
AcDbEntity
  8
标注
100
AcDbMText
 10
1041.032195043713
 20
120.374372859742
 30
0.0
 40
0.65
 41
0.0
 71
     5
 72
     1
  1
\A1;16 1/8"
 11
0.0000000000000001
 21
1.0
 31
0.0
 73
     1
 44
1.0
1001
ACAD
1000
MTEXTBEGIN
1070
    73
1070
     1
1070
    44
1040
1.0
1070
    74
1070
     0
1000
MTEXTEND
  0
POINT
  5
6EB9
330
6D82
100
AcDbEntity
  8
DEFPOINTS
 62
     0
100
AcDbPoint
 10
1038.417208464536
 20
112.2956327022929
 30
0.0
  0
POINT
  5
6EBA
330
6D82
100
AcDbEntity
  8
DEFPOINTS
 62
     0
100
AcDbPoint
 10
1038.417208464536
 20
128.4531130171908
 30
0.0
  0
POINT
  5
6EBB
330
6D82
100
AcDbEntity
  8
DEFPOINTS
 62
     0
100
AcDbPoint
 10
1041.032195043713
 20
128.4531130171908
 30
0.0
  0
ENDBLK
  5
6D84
330
6D82
100
AcDbEntity
  8
0
100
AcDbBlockEnd
  0
BLOCK
  5
6D91
330
6D90
100
AcDbEntity
  8
0
100
AcDbBlockBegin
  2
*D2
 70
     1
 10
0.0
 20
0.0
 30
0.0
  3
*D2
  1

  0
LINE
  5
6EBC
330
6D90
100
AcDbEntity
  8
标注
370
    -2
100
AcDbLine
 10
1009.824610039433
 20
112.2956327022929
 30
0.0
 11
1007.242350226264
 21
112.2956327022929
 31
0.0
  0
LINE
  5
6EBD
330
6D90
100
AcDbEntity
  8
标注
370
    -2
100
AcDbLine
 10
1009.824610039433
 20
130.4531130171908
 30
0.0
 11
1007.242350226264
 21
130.4531130171908
 31
0.0
  0
LINE
  5
6EBE
330
6D90
100
AcDbEntity
  8
标注
370
    -2
100
AcDbLine
 10
1007.562350226264
 20
112.9456327022929
 30
0.0
 11
1007.562350226264
 21
119.7216102403694
 31
0.0
  0
LINE
  5
6EBF
330
6D90
100
AcDbEntity
  8
标注
370
    -2
100
AcDbLine
 10
1007.562350226264
 20
129.8031130171908
 30
0.0
 11
1007.562350226264
 21
123.0271354791143
 31
0.0
  0
SOLID
  5
6EC0
330
6D90
100
AcDbEntity
  8
标注
100
AcDbTrace
 10
1007.45401689293
 20
112.9456327022929
 30
0.0
 11
1007.670683559597
 21
112.9456327022929
 31
0.0
 12
1007.562350226264
 22
112.2956327022929
 32
0.0
 13
1007.562350226264
 23
112.2956327022929
 33
0.0
  0
SOLID
  5
6EC1
330
6D90
100
AcDbEntity
  8
标注
100
AcDbTrace
 10
1007.45401689293
 20
129.8031130171908
 30
0.0
 11
1007.670683559597
 21
129.8031130171908
 31
0.0
 12
1007.562350226264
 22
130.4531130171908
 32
0.0
 13
1007.562350226264
 23
130.4531130171908
 33
0.0
  0
MTEXT
  5
6EC2
330
6D90
100
AcDbEntity
  8
标注
100
AcDbMText
 10
1007.562350226264
 20
121.374372859742
 30
0.0
 40
0.65
 41
0.0
 71
     5
 72
     1
  1
\A1;18 1/8"
 11
0.0000000000000001
 21
1.0
 31
0.0
 73
     1
 44
1.0
1001
ACAD
1000
MTEXTBEGIN
1070
    73
1070
     1
1070
    44
1040
1.0
1070
    74
1070
     0
1000
MTEXTEND
  0
POINT
  5
6EC3
330
6D90
100
AcDbEntity
  8
DEFPOINTS
 62
     0
100
AcDbPoint
 10
1010.704610039433
 20
112.2956327022929
 30
0.0
  0
POINT
  5
6EC4
330
6D90
100
AcDbEntity
  8
DEFPOINTS
 62
     0
100
AcDbPoint
 10
1010.704610039433
 20
130.4531130171908
 30
0.0
  0
POINT
  5
6EC5
330
6D90
100
AcDbEntity
  8
DEFPOINTS
 62
     0
100
AcDbPoint
 10
1007.562350226264
 20
130.4531130171908
 30
0.0
  0
ENDBLK
  5
6D92
330
6D90
100
AcDbEntity
  8
0
100
AcDbBlockEnd
  0
BLOCK
  5
6DB0
330
6DAF
100
AcDbEntity
  8
0
100
AcDbBlockBegin
  2
*D3
 70
     1
 10
0.0
 20
0.0
 30
0.0
  3
*D3
  1

  0
LINE
  5
6EC6
330
6DAF
100
AcDbEntity
  8
标注
370
    -2
100
AcDbLine
 10
1009.847727533964
 20
112.0430729253927
 30
0.0
 11
1009.351511112873
 21
111.6232285930035
 31
0.0
  0
MTEXT
  5
6EC7
330
6DAF
100
AcDbEntity
  8
标注
100
AcDbMText
 10
1008.121422579357
 20
111.0360046414869
 30
0.0
 40
0.65
 41
0.0
 71
     5
 72
     1
  1
\A1;4-R1/2"
 11
0.7634098786019736
 21
0.6459143575218933
 31
0.0
 73
     1
 44
1.0
1001
ACAD
1000
MTEXTBEGIN
1070
    73
1070
     1
1070
    44
1040
1.0
1070
    74
1070
     0
1000
MTEXTEND
  0
LINE
  5
6EC8
330
6DAF
100
AcDbEntity
  8
标注
370
    -2
100
AcDbLine
 10
1010.704610039433
 20
112.7680736471612
 30
0.0
 11
1010.343943955055
 21
112.462917257782
 31
0.0
  0
SOLID
  5
6EC9
330
6DAF
100
AcDbEntity
  8
标注
100
AcDbTrace
 10
1009.777753478566
 20
112.1257756622412
 30
0.0
 11
1009.917701589362
 21
111.9603701885441
 31
0.0
 12
1010.343943955055
 22
112.462917257782
 32
0.0
 13
1010.343943955055
 23
112.462917257782
 33
0.0
  0
POINT
  5
6ECA
330
6DAF
100
AcDbEntity
  8
DEFPOINTS
 62
     0
100
AcDbPoint
 10
1010.343943955055
 20
112.462917257782
 30
0.0
  0
POINT
  5
6ECB
330
6DAF
100
AcDbEntity
  8
DEFPOINTS
 62
     0
100
AcDbPoint
 10
1010.704610039433
 20
112.7680736471612
 30
0.0
  0
ENDBLK
  5
6DB1
330
6DAF
100
AcDbEntity
  8
0
100
AcDbBlockEnd
  0
BLOCK
  5
6DBA
330
6DB9
100
AcDbEntity
  8
0
100
AcDbBlockBegin
  2
*D4
 70
     1
 10
0.0
 20
0.0
 30
0.0
  3
*D4
  1

  0
LINE
  5
6ECC
330
6DB9
100
AcDbEntity
  8
标注
370
    -2
100
AcDbLine
 10
1024.545303572767
 20
130.9109248389289
 30
0.0
 11
1024.909030343582
 21
131.4496296153994
 31
0.0
  0
MTEXT
  5
6ECD
330
6DB9
100
AcDbEntity
  8
标注
100
AcDbMText
 10
1024.351579828208
 20
131.629011722406
 30
0.0
 40
0.65
 41
0.0
 71
     5
 72
     1
  1
\A1;R1/2"
 11
0.5595796474082685
 21
0.8287765791855113
 31
0.0
 73
     1
 44
1.0
1001
ACAD
1000
MTEXTBEGIN
1070
    73
1070
     1
1070
    44
1040
1.0
1070
    74
1070
     0
1000
MTEXTEND
  0
LINE
  5
6ECE
330
6DB9
100
AcDbEntity
  8
标注
370
    -2
100
AcDbLine
 10
1023.917208464594
 20
129.9806720722935
 30
0.0
 11
1024.181576801951
 21
130.3722200624584
 31
0.0
  0
SOLID
  5
6ECF
330
6DB9
100
AcDbEntity
  8
标注
100
AcDbTrace
 10
1024.455519443355
 20
130.9715459673982
 30
0.0
 11
1024.635087702178
 21
130.8503037104597
 31
0.0
 12
1024.181576801951
 22
130.3722200624584
 32
0.0
 13
1024.181576801951
 23
130.3722200624584
 33
0.0
  0
POINT
  5
6ED0
330
6DB9
100
AcDbEntity
  8
DEFPOINTS
 62
     0
100
AcDbPoint
 10
1024.181576801951
 20
130.3722200624584
 30
0.0
  0
POINT
  5
6ED1
330
6DB9
100
AcDbEntity
  8
DEFPOINTS
 62
     0
100
AcDbPoint
 10
1023.917208464594
 20
129.9806720722935
 30
0.0
  0
ENDBLK
  5
6DBB
330
6DB9
100
AcDbEntity
  8
0
100
AcDbBlockEnd
  0
BLOCK
  5
6DC4
330
6DC3
100
AcDbEntity
  8
0
100
AcDbBlockBegin
  2
*D5
 70
     1
 10
0.0
 20
0.0
 30
0.0
  3
*D5
  1

  0
LINE
  5
6ED2
330
6DC3
100
AcDbEntity
  8
标注
370
    -2
100
AcDbLine
 10
1024.076067768398
 20
128.0793094723327
 30
0.0
 11
1023.635583690926
 21
127.601320165451
 31
0.0
  0
MTEXT
  5
6ED3
330
6DC3
100
AcDbEntity
  8
标注
100
AcDbMText
 10
1023.402694570716
 20
128.2171821300071
 30
0.0
 40
0.65
 41
0.0
 71
     5
 72
     1
  1
\A1;R3/8"
 11
0.6776678114960708
 21
0.7353681644333852
 31
0.0
 73
     1
 44
1.0
1001
ACAD
1000
MTEXTBEGIN
1070
    73
1070
     1
1070
    44
1040
1.0
1070
    74
1070
     0
1000
MTEXTEND
  0
LINE
  5
6ED4
330
6DC3
100
AcDbEntity
  8
标注
370
    -2
100
AcDbLine
 10
1024.783350196852
 20
128.8468138045808
 30
0.0
 11
1024.51655184587
 21
128.5572987792144
 31
0.0
  0
SOLID
  5
6ED5
330
6DC3
100
AcDbEntity
  8
标注
100
AcDbTrace
 10
1023.996402883918
 20
128.1527234852448
 30
0.0
 11
1024.155732652878
 21
128.0058954594207
 31
0.0
 12
1024.51655184587
 22
128.5572987792144
 32
0.0
 13
1024.51655184587
 23
128.5572987792144
 33
0.0
  0
POINT
  5
6ED6
330
6DC3
100
AcDbEntity
  8
DEFPOINTS
 62
     0
100
AcDbPoint
 10
1024.51655184587
 20
128.5572987792144
 30
0.0
  0
POINT
  5
6ED7
330
6DC3
100
AcDbEntity
  8
DEFPOINTS
 62
     0
100
AcDbPoint
 10
1024.783350196852
 20
128.8468138045808
 30
0.0
  0
ENDBLK
  5
6DC5
330
6DC3
100
AcDbEntity
  8
0
100
AcDbBlockEnd
  0
BLOCK
  5
6DF8
330
6DF7
100
AcDbEntity
  8
0
100
AcDbBlockBegin
  2
*D6
 70
     1
 10
0.0
 20
0.0
 30
0.0
  3
*D6
  1

  0
LINE
  5
6ED8
330
6DF7
100
AcDbEntity
  8
标注
370
    -2
100
AcDbLine
 10
1009.710288124228
 20
146.5166919853646
 30
0.0
 11
1009.710288124228
 21
144.1295932028442
 31
0.0
  0
LINE
  5
6ED9
330
6DF7
100
AcDbEntity
  8
标注
370
    -2
100
AcDbLine
 10
1023.71028812417
 20
146.5166919853646
 30
0.0
 11
1023.71028812417
 21
144.1295932028442
 31
0.0
  0
LINE
  5
6EDA
330
6DF7
100
AcDbEntity
  8
标注
370
    -2
100
AcDbLine
 10
1010.360288124228
 20
144.4495932028441
 30
0.0
 11
1015.814824276995
 21
144.4495932028441
 31
0.0
  0
LINE
  5
6EDB
330
6DF7
100
AcDbEntity
  8
标注
370
    -2
100
AcDbLine
 10
1023.06028812417
 20
144.4495932028441
 30
0.0
 11
1017.605751971402
 21
144.4495932028441
 31
0.0
  0
SOLID
  5
6EDC
330
6DF7
100
AcDbEntity
  8
标注
100
AcDbTrace
 10
1010.360288124228
 20
144.5579265361775
 30
0.0
 11
1010.360288124228
 21
144.3412598695108
 31
0.0
 12
1009.710288124228
 22
144.4495932028441
 32
0.0
 13
1009.710288124228
 23
144.4495932028441
 33
0.0
  0
SOLID
  5
6EDD
330
6DF7
100
AcDbEntity
  8
标注
100
AcDbTrace
 10
1023.06028812417
 20
144.5579265361775
 30
0.0
 11
1023.06028812417
 21
144.3412598695108
 31
0.0
 12
1023.71028812417
 22
144.4495932028441
 32
0.0
 13
1023.71028812417
 23
144.4495932028441
 33
0.0
  0
MTEXT
  5
6EDE
330
6DF7
100
AcDbEntity
  8
标注
100
AcDbMText
 10
1016.710288124199
 20
144.4495932028441
 30
0.0
 40
0.65
 41
0.0
 71
     5
 72
     1
  1
\A1;14"
 73
     1
 44
1.0
1001
ACAD
1000
MTEXTBEGIN
1070
    73
1070
     1
1070
    44
1040
1.0
1070
    74
1070
     0
1000
MTEXTEND
  0
POINT
  5
6EDF
330
6DF7
100
AcDbEntity
  8
DEFPOINTS
 62
     0
100
AcDbPoint
 10
1009.710288124228
 20
147.3966919853646
 30
0.0
  0
POINT
  5
6EE0
330
6DF7
100
AcDbEntity
  8
DEFPOINTS
 62
     0
100
AcDbPoint
 10
1023.71028812417
 20
147.3966919853646
 30
0.0
  0
POINT
  5
6EE1
330
6DF7
100
AcDbEntity
  8
DEFPOINTS
 62
     0
100
AcDbPoint
 10
1023.71028812417
 20
144.4495932028441
 30
0.0
  0
ENDBLK
  5
6DF9
330
6DF7
100
AcDbEntity
  8
0
100
AcDbBlockEnd
  0
BLOCK
  5
6E06
330
6E05
100
AcDbEntity
  8
0
100
AcDbBlockBegin
  2
*D7
 70
     1
 10
0.0
 20
0.0
 30
0.0
  3
*D7
  1

  0
LINE
  5
6EE2
330
6E05
100
AcDbEntity
  8
标注
370
    -2
100
AcDbLine
 10
1024.71028812416
 20
146.5166919853546
 30
0.0
 11
1024.71028812416
 21
144.1295932028442
 31
0.0
  0
LINE
  5
6EE3
330
6E05
100
AcDbEntity
  8
标注
370
    -2
100
AcDbLine
 10
1038.210288124092
 20
146.5166919853837
 30
0.0
 11
1038.210288124092
 21
144.1295932028442
 31
0.0
  0
LINE
  5
6EE4
330
6E05
100
AcDbEntity
  8
标注
370
    -2
100
AcDbLine
 10
1025.36028812416
 20
144.4495932028441
 30
0.0
 11
1029.807525504754
 21
144.4495932028441
 31
0.0
  0
LINE
  5
6EE5
330
6E05
100
AcDbEntity
  8
标注
370
    -2
100
AcDbLine
 10
1037.560288124092
 20
144.4495932028441
 30
0.0
 11
1033.113050743498
 21
144.4495932028441
 31
0.0
  0
SOLID
  5
6EE6
330
6E05
100
AcDbEntity
  8
标注
100
AcDbTrace
 10
1025.36028812416
 20
144.5579265361775
 30
0.0
 11
1025.36028812416
 21
144.3412598695108
 31
0.0
 12
1024.71028812416
 22
144.4495932028441
 32
0.0
 13
1024.71028812416
 23
144.4495932028441
 33
0.0
  0
SOLID
  5
6EE7
330
6E05
100
AcDbEntity
  8
标注
100
AcDbTrace
 10
1037.560288124092
 20
144.5579265361775
 30
0.0
 11
1037.560288124092
 21
144.3412598695108
 31
0.0
 12
1038.210288124092
 22
144.4495932028441
 32
0.0
 13
1038.210288124092
 23
144.4495932028441
 33
0.0
  0
MTEXT
  5
6EE8
330
6E05
100
AcDbEntity
  8
标注
100
AcDbMText
 10
1031.460288124126
 20
144.4495932028441
 30
0.0
 40
0.65
 41
0.0
 71
     5
 72
     1
  1
\A1;13 1/2"
 73
     1
 44
1.0
1001
ACAD
1000
MTEXTBEGIN
1070
    73
1070
     1
1070
    44
1040
1.0
1070
    74
1070
     0
1000
MTEXTEND
  0
POINT
  5
6EE9
330
6E05
100
AcDbEntity
  8
DEFPOINTS
 62
     0
100
AcDbPoint
 10
1024.71028812416
 20
147.3966919853546
 30
0.0
  0
POINT
  5
6EEA
330
6E05
100
AcDbEntity
  8
DEFPOINTS
 62
     0
100
AcDbPoint
 10
1038.210288124092
 20
147.3966919853836
 30
0.0
  0
POINT
  5
6EEB
330
6E05
100
AcDbEntity
  8
DEFPOINTS
 62
     0
100
AcDbPoint
 10
1038.210288124092
 20
144.4495932028441
 30
0.0
  0
ENDBLK
  5
6E07
330
6E05
100
AcDbEntity
  8
0
100
AcDbBlockEnd
  0
BLOCK
  5
6E14
330
6E13
100
AcDbEntity
  8
0
100
AcDbBlockBegin
  2
*D8
 70
     1
 10
0.0
 20
0.0
 30
0.0
  3
*D8
  1

  0
LINE
  5
6EEC
330
6E13
100
AcDbEntity
  8
标注
370
    -2
100
AcDbLine
 10
1008.710288124228
 20
146.0886773052326
 30
0.0
 11
1008.710288124228
 21
142.3791019304778
 31
0.0
  0
LINE
  5
6EED
330
6E13
100
AcDbEntity
  8
标注
370
    -2
100
AcDbLine
 10
1039.210288124111
 20
146.0886773052326
 30
0.0
 11
1039.210288124111
 21
142.3791019304778
 31
0.0
  0
LINE
  5
6EEE
330
6E13
100
AcDbEntity
  8
标注
370
    -2
100
AcDbLine
 10
1009.360288124228
 20
142.6991019304778
 30
0.0
 11
1022.277153744906
 21
142.6991019304778
 31
0.0
  0
LINE
  5
6EEF
330
6E13
100
AcDbEntity
  8
标注
370
    -2
100
AcDbLine
 10
1038.560288124111
 20
142.6991019304778
 30
0.0
 11
1025.643422503433
 21
142.6991019304778
 31
0.0
  0
SOLID
  5
6EF0
330
6E13
100
AcDbEntity
  8
标注
100
AcDbTrace
 10
1009.360288124228
 20
142.8074352638111
 30
0.0
 11
1009.360288124228
 21
142.5907685971445
 31
0.0
 12
1008.710288124228
 22
142.6991019304778
 32
0.0
 13
1008.710288124228
 23
142.6991019304778
 33
0.0
  0
SOLID
  5
6EF1
330
6E13
100
AcDbEntity
  8
标注
100
AcDbTrace
 10
1038.560288124111
 20
142.8074352638111
 30
0.0
 11
1038.560288124111
 21
142.5907685971445
 31
0.0
 12
1039.210288124111
 22
142.6991019304778
 32
0.0
 13
1039.210288124111
 23
142.6991019304778
 33
0.0
  0
MTEXT
  5
6EF2
330
6E13
100
AcDbEntity
  8
标注
100
AcDbMText
 10
1023.96028812417
 20
142.6991019304778
 30
0.0
 40
0.65
 41
0.0
 71
     5
 72
     1
  1
\A1;30 1/2"
 73
     1
 44
1.0
1001
ACAD
1000
MTEXTBEGIN
1070
    73
1070
     1
1070
    44
1040
1.0
1070
    74
1070
     0
1000
MTEXTEND
  0
POINT
  5
6EF3
330
6E13
100
AcDbEntity
  8
DEFPOINTS
 62
     0
100
AcDbPoint
 10
1008.710288124228
 20
146.9686773052325
 30
0.0
  0
POINT
  5
6EF4
330
6E13
100
AcDbEntity
  8
DEFPOINTS
 62
     0
100
AcDbPoint
 10
1039.210288124111
 20
146.9686773052325
 30
0.0
  0
POINT
  5
6EF5
330
6E13
100
AcDbEntity
  8
DEFPOINTS
 62
     0
100
AcDbPoint
 10
1039.210288124111
 20
142.6991019304778
 30
0.0
  0
ENDBLK
  5
6E15
330
6E13
100
AcDbEntity
  8
0
100
AcDbBlockEnd
  0
BLOCK
  5
6E22
330
6E21
100
AcDbEntity
  8
0
100
AcDbBlockBegin
  2
*D9
 70
     1
 10
0.0
 20
0.0
 30
0.0
  3
*D9
  1

  0
LINE
  5
6EF6
330
6E21
100
AcDbEntity
  8
标注
370
    -2
100
AcDbLine
 10
1038.696587336692
 20
147.0029911979454
 30
0.0
 11
1041.364624893784
 21
147.0029911979454
 31
0.0
  0
LINE
  5
6EF7
330
6E21
100
AcDbEntity
  8
标注
370
    -2
100
AcDbLine
 10
1038.696587336692
 20
163.002991197897
 30
0.0
 11
1041.364624893784
 21
163.002991197897
 31
0.0
  0
LINE
  5
6EF8
330
6E21
100
AcDbEntity
  8
标注
370
    -2
100
AcDbLine
 10
1041.044624893784
 20
147.6529911979454
 30
0.0
 11
1041.044624893784
 21
154.1075273507179
 31
0.0
  0
LINE
  5
6EF9
330
6E21
100
AcDbEntity
  8
标注
370
    -2
100
AcDbLine
 10
1041.044624893784
 20
162.3529911978971
 30
0.0
 11
1041.044624893784
 21
155.8984550451244
 31
0.0
  0
SOLID
  5
6EFA
330
6E21
100
AcDbEntity
  8
标注
100
AcDbTrace
 10
1040.93629156045
 20
147.6529911979454
 30
0.0
 11
1041.152958227117
 21
147.6529911979454
 31
0.0
 12
1041.044624893784
 22
147.0029911979454
 32
0.0
 13
1041.044624893784
 23
147.0029911979454
 33
0.0
  0
SOLID
  5
6EFB
330
6E21
100
AcDbEntity
  8
标注
100
AcDbTrace
 10
1040.93629156045
 20
162.3529911978971
 30
0.0
 11
1041.152958227117
 21
162.3529911978971
 31
0.0
 12
1041.044624893784
 22
163.002991197897
 32
0.0
 13
1041.044624893784
 23
163.002991197897
 33
0.0
  0
MTEXT
  5
6EFC
330
6E21
100
AcDbEntity
  8
标注
100
AcDbMText
 10
1041.044624893784
 20
155.0029911979214
 30
0.0
 40
0.65
 41
0.0
 71
     5
 72
     1
  1
\A1;16"
 11
0.0000000000000001
 21
1.0
 31
0.0
 73
     1
 44
1.0
1001
ACAD
1000
MTEXTBEGIN
1070
    73
1070
     1
1070
    44
1040
1.0
1070
    74
1070
     0
1000
MTEXTEND
  0
POINT
  5
6EFD
330
6E21
100
AcDbEntity
  8
DEFPOINTS
 62
     0
100
AcDbPoint
 10
1037.816587336692
 20
147.0029911979454
 30
0.0
  0
POINT
  5
6EFE
330
6E21
100
AcDbEntity
  8
DEFPOINTS
 62
     0
100
AcDbPoint
 10
1037.816587336692
 20
163.002991197897
 30
0.0
  0
POINT
  5
6EFF
330
6E21
100
AcDbEntity
  8
DEFPOINTS
 62
     0
100
AcDbPoint
 10
1041.044624893784
 20
163.002991197897
 30
0.0
  0
ENDBLK
  5
6E23
330
6E21
100
AcDbEntity
  8
0
100
AcDbBlockEnd
  0
BLOCK
  5
6E30
330
6E2F
100
AcDbEntity
  8
0
100
AcDbBlockBegin
  2
*D10
 70
     1
 10
0.0
 20
0.0
 30
0.0
  3
*D10
  1

  0
LINE
  5
6F00
330
6E2F
100
AcDbEntity
  8
标注
370
    -2
100
AcDbLine
 10
1039.090288124092
 20
146.0029911979454
 30
0.0
 11
1043.101448051936
 21
146.0029911979454
 31
0.0
  0
LINE
  5
6F01
330
6E2F
100
AcDbEntity
  8
标注
370
    -2
100
AcDbLine
 10
1039.090288124092
 20
164.0029911978872
 30
0.0
 11
1043.101448051936
 21
164.0029911978872
 31
0.0
  0
LINE
  5
6F02
330
6E2F
100
AcDbEntity
  8
标注
370
    -2
100
AcDbLine
 10
1042.781448051936
 20
146.6529911979454
 30
0.0
 11
1042.781448051936
 21
154.107527350713
 31
0.0
  0
LINE
  5
6F03
330
6E2F
100
AcDbEntity
  8
标注
370
    -2
100
AcDbLine
 10
1042.781448051936
 20
163.3529911978872
 30
0.0
 11
1042.781448051936
 21
155.8984550451195
 31
0.0
  0
SOLID
  5
6F04
330
6E2F
100
AcDbEntity
  8
标注
100
AcDbTrace
 10
1042.673114718603
 20
146.6529911979454
 30
0.0
 11
1042.88978138527
 21
146.6529911979454
 31
0.0
 12
1042.781448051936
 22
146.0029911979454
 32
0.0
 13
1042.781448051936
 23
146.0029911979454
 33
0.0
  0
SOLID
  5
6F05
330
6E2F
100
AcDbEntity
  8
标注
100
AcDbTrace
 10
1042.673114718603
 20
163.3529911978872
 30
0.0
 11
1042.88978138527
 21
163.3529911978872
 31
0.0
 12
1042.781448051936
 22
164.0029911978872
 32
0.0
 13
1042.781448051936
 23
164.0029911978872
 33
0.0
  0
MTEXT
  5
6F06
330
6E2F
100
AcDbEntity
  8
标注
100
AcDbMText
 10
1042.781448051936
 20
155.0029911979164
 30
0.0
 40
0.65
 41
0.0
 71
     5
 72
     1
  1
\A1;18"
 11
0.0000000000000001
 21
1.0
 31
0.0
 73
     1
 44
1.0
1001
ACAD
1000
MTEXTBEGIN
1070
    73
1070
     1
1070
    44
1040
1.0
1070
    74
1070
     0
1000
MTEXTEND
  0
POINT
  5
6F07
330
6E2F
100
AcDbEntity
  8
DEFPOINTS
 62
     0
100
AcDbPoint
 10
1038.210288124092
 20
146.0029911979454
 30
0.0
  0
POINT
  5
6F08
330
6E2F
100
AcDbEntity
  8
DEFPOINTS
 62
     0
100
AcDbPoint
 10
1038.210288124092
 20
164.0029911978872
 30
0.0
  0
POINT
  5
6F09
330
6E2F
100
AcDbEntity
  8
DEFPOINTS
 62
     0
100
AcDbPoint
 10
1042.781448051936
 20
164.0029911978872
 30
0.0
  0
ENDBLK
  5
6E31
330
6E2F
100
AcDbEntity
  8
0
100
AcDbBlockEnd
  0
BLOCK
  5
6E3E
330
6E3D
100
AcDbEntity
  8
0
100
AcDbBlockBegin
  2
*D11
 70
     1
 10
0.0
 20
0.0
 30
0.0
  3
*D11
  1

  0
LINE
  5
6F0A
330
6E3D
100
AcDbEntity
  8
标注
370
    -2
100
AcDbLine
 10
1009.223988911618
 20
147.0029911979454
 30
0.0
 11
1006.745418273095
 21
147.0029911979454
 31
0.0
  0
LINE
  5
6F0B
330
6E3D
100
AcDbEntity
  8
标注
370
    -2
100
AcDbLine
 10
1009.223988911618
 20
165.0029911978872
 30
0.0
 11
1006.745418273095
 21
165.0029911978872
 31
0.0
  0
LINE
  5
6F0C
330
6E3D
100
AcDbEntity
  8
标注
370
    -2
100
AcDbLine
 10
1007.065418273095
 20
147.6529911979454
 30
0.0
 11
1007.065418273095
 21
155.107527350713
 31
0.0
  0
LINE
  5
6F0D
330
6E3D
100
AcDbEntity
  8
标注
370
    -2
100
AcDbLine
 10
1007.065418273095
 20
164.3529911978871
 30
0.0
 11
1007.065418273095
 21
156.8984550451195
 31
0.0
  0
SOLID
  5
6F0E
330
6E3D
100
AcDbEntity
  8
标注
100
AcDbTrace
 10
1006.957084939761
 20
147.6529911979454
 30
0.0
 11
1007.173751606428
 21
147.6529911979454
 31
0.0
 12
1007.065418273095
 22
147.0029911979454
 32
0.0
 13
1007.065418273095
 23
147.0029911979454
 33
0.0
  0
SOLID
  5
6F0F
330
6E3D
100
AcDbEntity
  8
标注
100
AcDbTrace
 10
1006.957084939761
 20
164.3529911978871
 30
0.0
 11
1007.173751606428
 21
164.3529911978871
 31
0.0
 12
1007.065418273095
 22
165.0029911978872
 32
0.0
 13
1007.065418273095
 23
165.0029911978872
 33
0.0
  0
MTEXT
  5
6F10
330
6E3D
100
AcDbEntity
  8
标注
100
AcDbMText
 10
1007.065418273095
 20
156.0029911979164
 30
0.0
 40
0.65
 41
0.0
 71
     5
 72
     1
  1
\A1;18"
 11
0.0000000000000001
 21
1.0
 31
0.0
 73
     1
 44
1.0
1001
ACAD
1000
MTEXTBEGIN
1070
    73
1070
     1
1070
    44
1040
1.0
1070
    74
1070
     0
1000
MTEXTEND
  0
POINT
  5
6F11
330
6E3D
100
AcDbEntity
  8
DEFPOINTS
 62
     0
100
AcDbPoint
 10
1010.103988911618
 20
147.0029911979454
 30
0.0
  0
POINT
  5
6F12
330
6E3D
100
AcDbEntity
  8
DEFPOINTS
 62
     0
100
AcDbPoint
 10
1010.103988911618
 20
165.0029911978872
 30
0.0
  0
POINT
  5
6F13
330
6E3D
100
AcDbEntity
  8
DEFPOINTS
 62
     0
100
AcDbPoint
 10
1007.065418273095
 20
165.0029911978872
 30
0.0
  0
ENDBLK
  5
6E3F
330
6E3D
100
AcDbEntity
  8
0
100
AcDbBlockEnd
  0
BLOCK
  5
6E4C
330
6E4B
100
AcDbEntity
  8
0
100
AcDbBlockBegin
  2
*D12
 70
     1
 10
0.0
 20
0.0
 30
0.0
  3
*D12
  1

  0
LINE
  5
6F14
330
6E4B
100
AcDbEntity
  8
标注
370
    -2
100
AcDbLine
 10
1008.830288124228
 20
146.0029911979454
 30
0.0
 11
1005.055291516582
 21
146.0029911979454
 31
0.0
  0
LINE
  5
6F15
330
6E4B
100
AcDbEntity
  8
标注
370
    -2
100
AcDbLine
 10
1008.830288124228
 20
166.002991197858
 30
0.0
 11
1005.055291516582
 21
166.002991197858
 31
0.0
  0
LINE
  5
6F16
330
6E4B
100
AcDbEntity
  8
标注
370
    -2
100
AcDbLine
 10
1005.375291516581
 20
146.6529911979454
 30
0.0
 11
1005.375291516581
 21
155.0713916071785
 31
0.0
  0
LINE
  5
6F17
330
6E4B
100
AcDbEntity
  8
标注
370
    -2
100
AcDbLine
 10
1005.375291516581
 20
165.352991197858
 30
0.0
 11
1005.375291516581
 21
156.9345907886248
 31
0.0
  0
SOLID
  5
6F18
330
6E4B
100
AcDbEntity
  8
标注
100
AcDbTrace
 10
1005.266958183248
 20
146.6529911979454
 30
0.0
 11
1005.483624849915
 21
146.6529911979454
 31
0.0
 12
1005.375291516581
 22
146.0029911979454
 32
0.0
 13
1005.375291516581
 23
146.0029911979454
 33
0.0
  0
SOLID
  5
6F19
330
6E4B
100
AcDbEntity
  8
标注
100
AcDbTrace
 10
1005.266958183248
 20
165.352991197858
 30
0.0
 11
1005.483624849915
 21
165.352991197858
 31
0.0
 12
1005.375291516581
 22
166.002991197858
 32
0.0
 13
1005.375291516581
 23
166.002991197858
 33
0.0
  0
MTEXT
  5
6F1A
330
6E4B
100
AcDbEntity
  8
标注
100
AcDbMText
 10
1005.375291516581
 20
156.0029911979019
 30
0.0
 40
0.65
 41
0.0
 71
     5
 72
     1
  1
\A1;20"
 11
0.0000000000000001
 21
1.0
 31
0.0
 73
     1
 44
1.0
1001
ACAD
1000
MTEXTBEGIN
1070
    73
1070
     1
1070
    44
1040
1.0
1070
    74
1070
     0
1000
MTEXTEND
  0
POINT
  5
6F1B
330
6E4B
100
AcDbEntity
  8
DEFPOINTS
 62
     0
100
AcDbPoint
 10
1009.710288124228
 20
146.0029911979454
 30
0.0
  0
POINT
  5
6F1C
330
6E4B
100
AcDbEntity
  8
DEFPOINTS
 62
     0
100
AcDbPoint
 10
1009.710288124228
 20
166.002991197858
 30
0.0
  0
POINT
  5
6F1D
330
6E4B
100
AcDbEntity
  8
DEFPOINTS
 62
     0
100
AcDbPoint
 10
1005.375291516581
 20
166.002991197858
 30
0.0
  0
ENDBLK
  5
6E4D
330
6E4B
100
AcDbEntity
  8
0
100
AcDbBlockEnd
  0
BLOCK
  5
6E5A
330
6E59
100
AcDbEntity
  8
0
100
AcDbBlockBegin
  2
*D13
 70
     1
 10
0.0
 20
0.0
 30
0.0
  3
*D13
  1

  0
LINE
  5
6F1E
330
6E59
100
AcDbEntity
  8
标注
370
    -2
100
AcDbLine
 10
1040.090288124112
 20
185.7543758390301
 30
0.0
 11
1040.994697748532
 21
185.7543758390301
 31
0.0
  0
LINE
  5
6F1F
330
6E59
100
AcDbEntity
  8
标注
370
    -2
100
AcDbLine
 10
1038.725723289982
 20
177.8161041855118
 30
0.0
 11
1040.994697748532
 21
177.8161041855118
 31
0.0
  0
LINE
  5
6F20
330
6E59
100
AcDbEntity
  8
标注
370
    -2
100
AcDbLine
 10
1040.674697748531
 20
185.10437583903
 30
0.0
 11
1040.674697748531
 21
182.4592338731168
 31
0.0
  0
LINE
  5
6F21
330
6E59
100
AcDbEntity
  8
标注
370
    -2
100
AcDbLine
 10
1040.674697748531
 20
178.4661041855118
 30
0.0
 11
1040.674697748531
 21
181.1112461514251
 31
0.0
  0
SOLID
  5
6F22
330
6E59
100
AcDbEntity
  8
标注
100
AcDbTrace
 10
1040.566364415198
 20
185.10437583903
 30
0.0
 11
1040.783031081865
 21
185.10437583903
 31
0.0
 12
1040.674697748531
 22
185.7543758390301
 32
0.0
 13
1040.674697748531
 23
185.7543758390301
 33
0.0
  0
SOLID
  5
6F23
330
6E59
100
AcDbEntity
  8
标注
100
AcDbTrace
 10
1040.566364415198
 20
178.4661041855118
 30
0.0
 11
1040.783031081865
 21
178.4661041855118
 31
0.0
 12
1040.674697748531
 22
177.8161041855118
 32
0.0
 13
1040.674697748531
 23
177.8161041855118
 33
0.0
  0
MTEXT
  5
6F24
330
6E59
100
AcDbEntity
  8
标注
100
AcDbMText
 10
1040.674697748531
 20
181.7852400122711
 30
0.0
 40
0.65
 41
0.0
 71
     5
 72
     1
  1
\A1;8"
 11
0.0000000000000001
 21
1.0
 31
0.0
 73
     1
 44
1.0
1001
ACAD
1000
MTEXTBEGIN
1070
    73
1070
     1
1070
    44
1040
1.0
1070
    74
1070
     0
1000
MTEXTEND
  0
POINT
  5
6F25
330
6E59
100
AcDbEntity
  8
DEFPOINTS
 62
     0
100
AcDbPoint
 10
1039.210288124111
 20
185.7543758390301
 30
0.0
  0
POINT
  5
6F26
330
6E59
100
AcDbEntity
  8
DEFPOINTS
 62
     0
100
AcDbPoint
 10
1037.845723289982
 20
177.8161041855118
 30
0.0
  0
POINT
  5
6F27
330
6E59
100
AcDbEntity
  8
DEFPOINTS
 62
     0
100
AcDbPoint
 10
1040.674697748531
 20
177.8161041855118
 30
0.0
  0
ENDBLK
  5
6E5B
330
6E59
100
AcDbEntity
  8
0
100
AcDbBlockEnd
  0
BLOCK
  5
6E7C
330
6E7B
100
AcDbEntity
  8
0
100
AcDbBlockBegin
  2
*D14
 70
     1
 10
0.0
 20
0.0
 30
0.0
  3
*D14
  1

  0
LINE
  5
6F28
330
6E7B
100
AcDbEntity
  8
标注
370
    -2
100
AcDbLine
 10
1007.830288124548
 20
185.7543758390301
 30
0.0
 11
1006.362053868092
 21
185.7543758390301
 31
0.0
  0
LINE
  5
6F29
330
6E7B
100
AcDbEntity
  8
标注
370
    -2
100
AcDbLine
 10
1007.830288124548
 20
176.7543758390301
 30
0.0
 11
1006.362053868092
 21
176.7543758390301
 31
0.0
  0
LINE
  5
6F2A
330
6E7B
100
AcDbEntity
  8
标注
370
    -2
100
AcDbLine
 10
1006.682053868092
 20
185.10437583903
 30
0.0
 11
1006.682053868092
 21
181.9279263165199
 31
0.0
  0
LINE
  5
6F2B
330
6E7B
100
AcDbEntity
  8
标注
370
    -2
100
AcDbLine
 10
1006.682053868092
 20
177.4043758390301
 30
0.0
 11
1006.682053868092
 21
180.5808253615404
 31
0.0
  0
SOLID
  5
6F2C
330
6E7B
100
AcDbEntity
  8
标注
100
AcDbTrace
 10
1006.573720534758
 20
185.10437583903
 30
0.0
 11
1006.790387201425
 21
185.10437583903
 31
0.0
 12
1006.682053868092
 22
185.7543758390301
 32
0.0
 13
1006.682053868092
 23
185.7543758390301
 33
0.0
  0
SOLID
  5
6F2D
330
6E7B
100
AcDbEntity
  8
标注
100
AcDbTrace
 10
1006.573720534758
 20
177.4043758390301
 30
0.0
 11
1006.790387201425
 21
177.4043758390301
 31
0.0
 12
1006.682053868092
 22
176.7543758390301
 32
0.0
 13
1006.682053868092
 23
176.7543758390301
 33
0.0
  0
MTEXT
  5
6F2E
330
6E7B
100
AcDbEntity
  8
标注
100
AcDbMText
 10
1006.682053868092
 20
181.2543758390303
 30
0.0
 40
0.65
 41
0.0
 71
     5
 72
     1
  1
\A1;9"
 11
0.0000000000000001
 21
1.0
 31
0.0
 73
     1
 44
1.0
1001
ACAD
1000
MTEXTBEGIN
1070
    73
1070
     1
1070
    44
1040
1.0
1070
    74
1070
     0
1000
MTEXTEND
  0
POINT
  5
6F2F
330
6E7B
100
AcDbEntity
  8
DEFPOINTS
 62
     0
100
AcDbPoint
 10
1008.710288124548
 20
185.7543758390301
 30
0.0
  0
POINT
  5
6F30
330
6E7B
100
AcDbEntity
  8
DEFPOINTS
 62
     0
100
AcDbPoint
 10
1008.710288124548
 20
176.7543758390301
 30
0.0
  0
POINT
  5
6F31
330
6E7B
100
AcDbEntity
  8
DEFPOINTS
 62
     0
100
AcDbPoint
 10
1006.682053868092
 20
176.7543758390301
 30
0.0
  0
ENDBLK
  5
6E7D
330
6E7B
100
AcDbEntity
  8
0
100
AcDbBlockEnd
  0
BLOCK
  5
6E8A
330
6E89
100
AcDbEntity
  8
0
100
AcDbBlockBegin
  2
*D15
 70
     1
 10
0.0
 20
0.0
 30
0.0
  3
*D15
  1

  0
LINE
  5
6F32
330
6E89
100
AcDbEntity
  8
标注
370
    -2
100
AcDbLine
 10
1009.964051694382
 20
176.4762545283475
 30
0.0
 11
1009.503870816428
 21
176.0171972774892
 31
0.0
  0
MTEXT
  5
6F33
330
6E89
100
AcDbEntity
  8
标注
100
AcDbMText
 10
1011.272397653072
 20
178.2512385999863
 30
0.0
 40
0.65
 41
0.0
 71
     5
 72
     1
  1
\A1;R3/8"
 11
0.7079705814675492
 21
0.7062419243973701
 31
0.0
 73
     1
 44
1.0
1001
ACAD
1000
MTEXTBEGIN
1070
    73
1070
     1
1070
    44
1040
1.0
1070
    74
1070
     0
1000
MTEXTEND
  0
LINE
  5
6F34
330
6E89
100
AcDbEntity
  8
标注
370
    -2
100
AcDbLine
 10
1010.702961147716
 20
177.2133597809361
 30
0.0
 11
1010.424232572336
 21
176.9353117792057
 31
0.0
  0
SOLID
  5
6F35
330
6E89
100
AcDbEntity
  8
标注
100
AcDbTrace
 10
1009.887542152572
 20
176.5529513413398
 30
0.0
 11
1010.040561236191
 21
176.3995577153552
 31
0.0
 12
1010.424232572336
 22
176.9353117792057
 32
0.0
 13
1010.424232572336
 23
176.9353117792057
 33
0.0
  0
POINT
  5
6F36
330
6E89
100
AcDbEntity
  8
DEFPOINTS
 62
     0
100
AcDbPoint
 10
1010.424232572336
 20
176.9353117792057
 30
0.0
  0
POINT
  5
6F37
330
6E89
100
AcDbEntity
  8
DEFPOINTS
 62
     0
100
AcDbPoint
 10
1010.702961147716
 20
177.2133597809361
 30
0.0
  0
ENDBLK
  5
6E8B
330
6E89
100
AcDbEntity
  8
0
100
AcDbBlockEnd
  0
BLOCK
  5
6E94
330
6E93
100
AcDbEntity
  8
0
100
AcDbBlockBegin
  2
*D16
 70
     1
 10
0.0
 20
0.0
 30
0.0
  3
*D16
  1

  0
LINE
  5
6F38
330
6E93
100
AcDbEntity
  8
标注
370
    -2
100
AcDbLine
 10
1024.947305626549
 20
177.4264608794609
 30
0.0
 11
1024.520300447961
 21
176.9363929479868
 31
0.0
  0
MTEXT
  5
6F39
330
6E93
100
AcDbEntity
  8
标注
100
AcDbMText
 10
1026.161982373129
 20
179.2928120157265
 30
0.0
 40
0.65
 41
0.0
 71
     5
 72
     1
  1
\A1;R3/8"
 11
0.6569310439812118
 21
0.7539506638061642
 31
0.0
 73
     1
 44
1.0
1001
ACAD
1000
MTEXTBEGIN
1070
    73
1070
     1
1070
    44
1040
1.0
1070
    74
1070
     0
1000
MTEXTEND
  0
LINE
  5
6F3A
330
6E93
100
AcDbEntity
  8
标注
370
    -2
100
AcDbLine
 10
1025.632945074419
 20
178.213359780936
 30
0.0
 11
1025.374310805136
 21
177.9165288109349
 31
0.0
  0
SOLID
  5
6F3B
330
6E93
100
AcDbEntity
  8
标注
100
AcDbTrace
 10
1024.86562763797
 20
177.4976284092256
 30
0.0
 11
1025.028983615128
 21
177.3552933496963
 31
0.0
 12
1025.374310805136
 22
177.9165288109349
 32
0.0
 13
1025.374310805136
 23
177.9165288109349
 33
0.0
  0
POINT
  5
6F3C
330
6E93
100
AcDbEntity
  8
DEFPOINTS
 62
     0
100
AcDbPoint
 10
1025.374310805136
 20
177.9165288109349
 30
0.0
  0
POINT
  5
6F3D
330
6E93
100
AcDbEntity
  8
DEFPOINTS
 62
     0
100
AcDbPoint
 10
1025.632945074419
 20
178.213359780936
 30
0.0
  0
ENDBLK
  5
6E95
330
6E93
100
AcDbEntity
  8
0
100
AcDbBlockEnd
  0
BLOCK
  5
70CB
330
70CA
100
AcDbEntity
  8
0
100
AcDbBlockBegin
  2
*D17
 70
     1
 10
0.0
 20
0.0
 30
0.0
  3
*D17
  1

  0
LINE
  5
7177
330
70CA
100
AcDbEntity
  8
标注
  6
Continuous
370
    -2
100
AcDbLine
 10
1031.750133577439
 20
108.459742309976
 30
0.0
 11
1031.750133577439
 21
106.2983693320087
 31
0.0
  0
LINE
  5
7178
330
70CA
100
AcDbEntity
  8
标注
  6
Continuous
370
    -2
100
AcDbLine
 10
1061.9020885017
 20
108.5313940630522
 30
0.0
 11
1061.9020885017
 21
106.2983693320087
 31
0.0
  0
LINE
  5
7179
330
70CA
100
AcDbEntity
  8
标注
  6
Continuous
370
    -2
100
AcDbLine
 10
1032.400133577439
 20
106.6183693320087
 30
0.0
 11
1045.142976660306
 21
106.6183693320087
 31
0.0
  0
LINE
  5
717A
330
70CA
100
AcDbEntity
  8
标注
  6
Continuous
370
    -2
100
AcDbLine
 10
1061.2520885017
 20
106.6183693320087
 30
0.0
 11
1048.509245418833
 21
106.6183693320087
 31
0.0
  0
SOLID
  5
717B
330
70CA
100
AcDbEntity
  8
标注
100
AcDbTrace
 10
1032.400133577439
 20
106.726702665342
 30
0.0
 11
1032.400133577439
 21
106.5100359986753
 31
0.0
 12
1031.750133577439
 22
106.6183693320087
 32
0.0
 13
1031.750133577439
 23
106.6183693320087
 33
0.0
  0
SOLID
  5
717C
330
70CA
100
AcDbEntity
  8
标注
100
AcDbTrace
 10
1061.2520885017
 20
106.726702665342
 30
0.0
 11
1061.2520885017
 21
106.5100359986753
 31
0.0
 12
1061.9020885017
 22
106.6183693320087
 32
0.0
 13
1061.9020885017
 23
106.6183693320087
 33
0.0
  0
MTEXT
  5
717D
330
70CA
100
AcDbEntity
  8
标注
100
AcDbMText
 10
1046.82611103957
 20
106.6183693320087
 30
0.0
 40
0.65
 41
0.0
 71
     5
 72
     1
  1
\A1;30 1/8"
 73
     1
 44
1.0
1001
ACAD
1000
MTEXTBEGIN
1070
    73
1070
     1
1070
    44
1040
1.0
1070
    74
1070
     0
1000
MTEXTEND
  0
POINT
  5
717E
330
70CA
100
AcDbEntity
  8
DEFPOINTS
 62
     0
100
AcDbPoint
 10
1031.750133577439
 20
109.339742309976
 30
0.0
  0
POINT
  5
717F
330
70CA
100
AcDbEntity
  8
DEFPOINTS
 62
     0
100
AcDbPoint
 10
1061.9020885017
 20
109.4113940630522
 30
0.0
  0
POINT
  5
7180
330
70CA
100
AcDbEntity
  8
DEFPOINTS
 62
     0
100
AcDbPoint
 10
1061.9020885017
 20
106.6183693320087
 30
0.0
  0
ENDBLK
  5
70CC
330
70CA
100
AcDbEntity
  8
0
100
AcDbBlockEnd
  0
BLOCK
  5
70D9
330
70D8
100
AcDbEntity
  8
0
100
AcDbBlockBegin
  2
*D18
 70
     1
 10
0.0
 20
0.0
 30
0.0
  3
*D18
  1

  0
LINE
  5
7181
330
70D8
100
AcDbEntity
  8
标注
  6
Continuous
370
    -2
100
AcDbLine
 10
1062.3096485017
 20
108.938954063069
 30
0.0
 11
1064.576224305511
 21
108.938954063069
 31
0.0
  0
LINE
  5
7182
330
70D8
100
AcDbEntity
  8
标注
  6
Continuous
370
    -2
100
AcDbLine
 10
1062.3096485017
 20
125.0964020630525
 30
0.0
 11
1064.576224305511
 21
125.0964020630525
 31
0.0
  0
LINE
  5
7183
330
70D8
100
AcDbEntity
  8
标注
  6
Continuous
370
    -2
100
AcDbLine
 10
1064.256224305511
 20
109.588954063069
 30
0.0
 11
1064.256224305511
 21
115.3649154436883
 31
0.0
  0
LINE
  5
7184
330
70D8
100
AcDbEntity
  8
标注
  6
Continuous
370
    -2
100
AcDbLine
 10
1064.256224305511
 20
124.4464020630525
 30
0.0
 11
1064.256224305511
 21
118.6704406824332
 31
0.0
  0
SOLID
  5
7185
330
70D8
100
AcDbEntity
  8
标注
100
AcDbTrace
 10
1064.147890972178
 20
109.588954063069
 30
0.0
 11
1064.364557638844
 21
109.588954063069
 31
0.0
 12
1064.256224305511
 22
108.938954063069
 32
0.0
 13
1064.256224305511
 23
108.938954063069
 33
0.0
  0
SOLID
  5
7186
330
70D8
100
AcDbEntity
  8
标注
100
AcDbTrace
 10
1064.147890972178
 20
124.4464020630525
 30
0.0
 11
1064.364557638844
 21
124.4464020630525
 31
0.0
 12
1064.256224305511
 22
125.0964020630525
 32
0.0
 13
1064.256224305511
 23
125.0964020630525
 33
0.0
  0
MTEXT
  5
7187
330
70D8
100
AcDbEntity
  8
标注
100
AcDbMText
 10
1064.256224305511
 20
117.0176780630609
 30
0.0
 40
0.65
 41
0.0
 71
     5
 72
     1
  1
\A1;16 1/8"
 11
0.0000000000000001
 21
1.0
 31
0.0
 73
     1
 44
1.0
1001
ACAD
1000
MTEXTBEGIN
1070
    73
1070
     1
1070
    44
1040
1.0
1070
    74
1070
     0
1000
MTEXTEND
  0
POINT
  5
7188
330
70D8
100
AcDbEntity
  8
DEFPOINTS
 62
     0
100
AcDbPoint
 10
1061.4296485017
 20
108.938954063069
 30
0.0
  0
POINT
  5
7189
330
70D8
100
AcDbEntity
  8
DEFPOINTS
 62
     0
100
AcDbPoint
 10
1061.4296485017
 20
125.0964020630525
 30
0.0
  0
POINT
  5
718A
330
70D8
100
AcDbEntity
  8
DEFPOINTS
 62
     0
100
AcDbPoint
 10
1064.256224305511
 20
125.0964020630525
 30
0.0
  0
ENDBLK
  5
70DA
330
70D8
100
AcDbEntity
  8
0
100
AcDbBlockEnd
  0
BLOCK
  5
70E7
330
70E6
100
AcDbEntity
  8
0
100
AcDbBlockBegin
  2
*D19
 70
     1
 10
0.0
 20
0.0
 30
0.0
  3
*D19
  1

  0
LINE
  5
718B
330
70E6
100
AcDbEntity
  8
标注
  6
Continuous
370
    -2
100
AcDbLine
 10
1031.329456651654
 20
108.7244109870424
 30
0.0
 11
1030.815421422578
 21
108.3265821503952
 31
0.0
  0
MTEXT
  5
718C
330
70E6
100
AcDbEntity
  8
标注
100
AcDbMText
 10
1032.752428175458
 20
110.2968467666346
 30
0.0
 40
0.65
 41
0.0
 71
     5
 72
     1
  1
\A1;4-R1/2"
 11
0.7908234293486518
 21
0.6120443640727672
 31
0.0
 73
     1
 44
1.0
1001
ACAD
1000
MTEXTBEGIN
1070
    73
1070
     1
1070
    44
1040
1.0
1070
    74
1070
     0
1000
MTEXTEND
  0
LINE
  5
718D
330
70E6
100
AcDbEntity
  8
标注
  6
Continuous
370
    -2
100
AcDbLine
 10
1032.217108501692
 20
109.4113940630522
 30
0.0
 11
1031.843491880731
 21
109.1222398236897
 31
0.0
  0
SOLID
  5
718E
330
70E6
100
AcDbEntity
  8
标注
100
AcDbTrace
 10
1031.263151845547
 20
108.8100835252219
 30
0.0
 11
1031.395761457763
 21
108.638738448863
 31
0.0
 12
1031.843491880731
 22
109.1222398236897
 32
0.0
 13
1031.843491880731
 23
109.1222398236897
 33
0.0
  0
POINT
  5
718F
330
70E6
100
AcDbEntity
  8
DEFPOINTS
 62
     0
100
AcDbPoint
 10
1031.843491880731
 20
109.1222398236897
 30
0.0
  0
POINT
  5
7190
330
70E6
100
AcDbEntity
  8
DEFPOINTS
 62
     0
100
AcDbPoint
 10
1032.217108501692
 20
109.4113940630522
 30
0.0
  0
ENDBLK
  5
70E8
330
70E6
100
AcDbEntity
  8
0
100
AcDbBlockEnd
  0
BLOCK
  5
7102
330
7101
100
AcDbEntity
  8
0
100
AcDbBlockBegin
  2
*D20
 70
     1
 10
0.0
 20
0.0
 30
0.0
  3
*D20
  1

  0
LINE
  5
7191
330
7101
100
AcDbEntity
  8
标注
  6
Continuous
370
    -2
100
AcDbLine
 10
1031.823408501721
 20
141.2969575858682
 30
0.0
 11
1031.823408501721
 21
138.708350569965
 31
0.0
  0
LINE
  5
7192
330
7101
100
AcDbEntity
  8
标注
  6
Continuous
370
    -2
100
AcDbLine
 10
1046.323379501719
 20
141.2969575858682
 30
0.0
 11
1046.323379501719
 21
138.708350569965
 31
0.0
  0
LINE
  5
7193
330
7101
100
AcDbEntity
  8
标注
  6
Continuous
370
    -2
100
AcDbLine
 10
1032.473408501721
 20
139.028350569965
 30
0.0
 11
1037.420631382348
 21
139.028350569965
 31
0.0
  0
LINE
  5
7194
330
7101
100
AcDbEntity
  8
标注
  6
Continuous
370
    -2
100
AcDbLine
 10
1045.673379501719
 20
139.028350569965
 30
0.0
 11
1040.726156621093
 21
139.028350569965
 31
0.0
  0
SOLID
  5
7195
330
7101
100
AcDbEntity
  8
标注
100
AcDbTrace
 10
1032.473408501721
 20
139.1366839032983
 30
0.0
 11
1032.473408501721
 21
138.9200172366317
 31
0.0
 12
1031.823408501721
 22
139.028350569965
 32
0.0
 13
1031.823408501721
 23
139.028350569965
 33
0.0
  0
SOLID
  5
7196
330
7101
100
AcDbEntity
  8
标注
100
AcDbTrace
 10
1045.673379501719
 20
139.1366839032983
 30
0.0
 11
1045.673379501719
 21
138.9200172366317
 31
0.0
 12
1046.323379501719
 22
139.028350569965
 32
0.0
 13
1046.323379501719
 23
139.028350569965
 33
0.0
  0
MTEXT
  5
7197
330
7101
100
AcDbEntity
  8
标注
100
AcDbMText
 10
1039.07339400172
 20
139.028350569965
 30
0.0
 40
0.65
 41
0.0
 71
     5
 72
     1
  1
\A1;14 1/2"
 73
     1
 44
1.0
1001
ACAD
1000
MTEXTBEGIN
1070
    73
1070
     1
1070
    44
1040
1.0
1070
    74
1070
     0
1000
MTEXTEND
  0
POINT
  5
7198
330
7101
100
AcDbEntity
  8
DEFPOINTS
 62
     0
100
AcDbPoint
 10
1031.823408501721
 20
142.1769575858682
 30
0.0
  0
POINT
  5
7199
330
7101
100
AcDbEntity
  8
DEFPOINTS
 62
     0
100
AcDbPoint
 10
1046.323379501719
 20
142.1769575858682
 30
0.0
  0
POINT
  5
719A
330
7101
100
AcDbEntity
  8
DEFPOINTS
 62
     0
100
AcDbPoint
 10
1046.323379501719
 20
139.028350569965
 30
0.0
  0
ENDBLK
  5
7103
330
7101
100
AcDbEntity
  8
0
100
AcDbBlockEnd
  0
BLOCK
  5
7110
330
710F
100
AcDbEntity
  8
0
100
AcDbBlockBegin
  2
*D21
 70
     1
 10
0.0
 20
0.0
 30
0.0
  3
*D21
  1

  0
LINE
  5
719B
330
710F
100
AcDbEntity
  8
标注
  6
Continuous
370
    -2
100
AcDbLine
 10
1047.323377501718
 20
141.2969575858682
 30
0.0
 11
1047.323377501718
 21
138.708350569965
 31
0.0
  0
LINE
  5
719C
330
710F
100
AcDbEntity
  8
标注
  6
Continuous
370
    -2
100
AcDbLine
 10
1061.823348501715
 20
141.2969575858682
 30
0.0
 11
1061.823348501715
 21
138.708350569965
 31
0.0
  0
LINE
  5
719D
330
710F
100
AcDbEntity
  8
标注
  6
Continuous
370
    -2
100
AcDbLine
 10
1047.973377501718
 20
139.028350569965
 30
0.0
 11
1052.920600382344
 21
139.028350569965
 31
0.0
  0
LINE
  5
719E
330
710F
100
AcDbEntity
  8
标注
  6
Continuous
370
    -2
100
AcDbLine
 10
1061.173348501715
 20
139.028350569965
 30
0.0
 11
1056.226125621089
 21
139.028350569965
 31
0.0
  0
SOLID
  5
719F
330
710F
100
AcDbEntity
  8
标注
100
AcDbTrace
 10
1047.973377501718
 20
139.1366839032983
 30
0.0
 11
1047.973377501718
 21
138.9200172366317
 31
0.0
 12
1047.323377501718
 22
139.028350569965
 32
0.0
 13
1047.323377501718
 23
139.028350569965
 33
0.0
  0
SOLID
  5
71A0
330
710F
100
AcDbEntity
  8
标注
100
AcDbTrace
 10
1061.173348501715
 20
139.1366839032983
 30
0.0
 11
1061.173348501715
 21
138.9200172366317
 31
0.0
 12
1061.823348501715
 22
139.028350569965
 32
0.0
 13
1061.823348501715
 23
139.028350569965
 33
0.0
  0
MTEXT
  5
71A1
330
710F
100
AcDbEntity
  8
标注
100
AcDbMText
 10
1054.573363001717
 20
139.028350569965
 30
0.0
 40
0.65
 41
0.0
 71
     5
 72
     1
  1
\A1;14 1/2"
 73
     1
 44
1.0
1001
ACAD
1000
MTEXTBEGIN
1070
    73
1070
     1
1070
    44
1040
1.0
1070
    74
1070
     0
1000
MTEXTEND
  0
POINT
  5
71A2
330
710F
100
AcDbEntity
  8
DEFPOINTS
 62
     0
100
AcDbPoint
 10
1047.323377501718
 20
142.1769575858682
 30
0.0
  0
POINT
  5
71A3
330
710F
100
AcDbEntity
  8
DEFPOINTS
 62
     0
100
AcDbPoint
 10
1061.823348501715
 20
142.1769575858682
 30
0.0
  0
POINT
  5
71A4
330
710F
100
AcDbEntity
  8
DEFPOINTS
 62
     0
100
AcDbPoint
 10
1061.823348501715
 20
139.028350569965
 30
0.0
  0
ENDBLK
  5
7111
330
710F
100
AcDbEntity
  8
0
100
AcDbBlockEnd
  0
BLOCK
  5
711E
330
711D
100
AcDbEntity
  8
0
100
AcDbBlockBegin
  2
*D22
 70
     1
 10
0.0
 20
0.0
 30
0.0
  3
*D22
  1

  0
LINE
  5
71A5
330
711D
100
AcDbEntity
  8
标注
  6
Continuous
370
    -2
100
AcDbLine
 10
1030.823410501722
 20
140.7508337617568
 30
0.0
 11
1030.823410501722
 21
136.4994846840956
 31
0.0
  0
LINE
  5
71A6
330
711D
100
AcDbEntity
  8
标注
  6
Continuous
370
    -2
100
AcDbLine
 10
1062.823346501703
 20
140.7508337617568
 30
0.0
 11
1062.823346501703
 21
136.4994846840956
 31
0.0
  0
LINE
  5
71A7
330
711D
100
AcDbEntity
  8
标注
  6
Continuous
370
    -2
100
AcDbLine
 10
1031.473410501722
 20
136.8194846840956
 30
0.0
 11
1045.897542894618
 21
136.8194846840956
 31
0.0
  0
LINE
  5
71A8
330
711D
100
AcDbEntity
  8
标注
  6
Continuous
370
    -2
100
AcDbLine
 10
1062.173346501703
 20
136.8194846840956
 30
0.0
 11
1047.749214108806
 21
136.8194846840956
 31
0.0
  0
SOLID
  5
71A9
330
711D
100
AcDbEntity
  8
标注
100
AcDbTrace
 10
1031.473410501722
 20
136.9278180174289
 30
0.0
 11
1031.473410501722
 21
136.7111513507623
 31
0.0
 12
1030.823410501722
 22
136.8194846840956
 32
0.0
 13
1030.823410501722
 23
136.8194846840956
 33
0.0
  0
SOLID
  5
71AA
330
711D
100
AcDbEntity
  8
标注
100
AcDbTrace
 10
1062.173346501703
 20
136.9278180174289
 30
0.0
 11
1062.173346501703
 21
136.7111513507623
 31
0.0
 12
1062.823346501703
 22
136.8194846840956
 32
0.0
 13
1062.823346501703
 23
136.8194846840956
 33
0.0
  0
MTEXT
  5
71AB
330
711D
100
AcDbEntity
  8
标注
100
AcDbMText
 10
1046.823378501712
 20
136.8194846840956
 30
0.0
 40
0.65
 41
0.0
 71
     5
 72
     1
  1
\A1;32"
 73
     1
 44
1.0
1001
ACAD
1000
MTEXTBEGIN
1070
    73
1070
     1
1070
    44
1040
1.0
1070
    74
1070
     0
1000
MTEXTEND
  0
POINT
  5
71AC
330
711D
100
AcDbEntity
  8
DEFPOINTS
 62
     0
100
AcDbPoint
 10
1030.823410501722
 20
141.6308337617568
 30
0.0
  0
POINT
  5
71AD
330
711D
100
AcDbEntity
  8
DEFPOINTS
 62
     0
100
AcDbPoint
 10
1062.823346501703
 20
141.6308337617568
 30
0.0
  0
POINT
  5
71AE
330
711D
100
AcDbEntity
  8
DEFPOINTS
 62
     0
100
AcDbPoint
 10
1062.823346501703
 20
136.8194846840956
 30
0.0
  0
ENDBLK
  5
711F
330
711D
100
AcDbEntity
  8
0
100
AcDbBlockEnd
  0
BLOCK
  5
712C
330
712B
100
AcDbEntity
  8
0
100
AcDbBlockBegin
  2
*D23
 70
     1
 10
0.0
 20
0.0
 30
0.0
  3
*D23
  1

  0
LINE
  5
71AF
330
712B
100
AcDbEntity
  8
标注
  6
Continuous
370
    -2
100
AcDbLine
 10
1062.066157021823
 20
141.7832575858531
 30
0.0
 11
1064.904507584792
 21
141.7832575858531
 31
0.0
  0
LINE
  5
71B0
330
712B
100
AcDbEntity
  8
标注
  6
Continuous
370
    -2
100
AcDbLine
 10
1062.066157021823
 20
157.7832255858714
 30
0.0
 11
1064.904507584792
 21
157.7832255858714
 31
0.0
  0
LINE
  5
71B1
330
712B
100
AcDbEntity
  8
标注
  6
Continuous
370
    -2
100
AcDbLine
 10
1064.584507584792
 20
142.4332575858531
 30
0.0
 11
1064.584507584792
 21
148.887777738659
 31
0.0
  0
LINE
  5
71B2
330
712B
100
AcDbEntity
  8
标注
  6
Continuous
370
    -2
100
AcDbLine
 10
1064.584507584792
 20
157.1332255858713
 30
0.0
 11
1064.584507584792
 21
150.6787054330655
 31
0.0
  0
SOLID
  5
71B3
330
712B
100
AcDbEntity
  8
标注
100
AcDbTrace
 10
1064.476174251459
 20
142.4332575858531
 30
0.0
 11
1064.692840918125
 21
142.4332575858531
 31
0.0
 12
1064.584507584792
 22
141.7832575858531
 32
0.0
 13
1064.584507584792
 23
141.7832575858531
 33
0.0
  0
SOLID
  5
71B4
330
712B
100
AcDbEntity
  8
标注
100
AcDbTrace
 10
1064.476174251459
 20
157.1332255858713
 30
0.0
 11
1064.692840918125
 21
157.1332255858713
 31
0.0
 12
1064.584507584792
 22
157.7832255858714
 32
0.0
 13
1064.584507584792
 23
157.7832255858714
 33
0.0
  0
MTEXT
  5
71B5
330
712B
100
AcDbEntity
  8
标注
100
AcDbMText
 10
1064.584507584792
 20
149.7832415858624
 30
0.0
 40
0.65
 41
0.0
 71
     5
 72
     1
  1
\A1;16"
 11
0.0000000000000001
 21
1.0
 31
0.0
 73
     1
 44
1.0
1001
ACAD
1000
MTEXTBEGIN
1070
    73
1070
     1
1070
    44
1040
1.0
1070
    74
1070
     0
1000
MTEXTEND
  0
POINT
  5
71B6
330
712B
100
AcDbEntity
  8
DEFPOINTS
 62
     0
100
AcDbPoint
 10
1061.186157021823
 20
141.7832575858531
 30
0.0
  0
POINT
  5
71B7
330
712B
100
AcDbEntity
  8
DEFPOINTS
 62
     0
100
AcDbPoint
 10
1061.186157021823
 20
157.7832255858714
 30
0.0
  0
POINT
  5
71B8
330
712B
100
AcDbEntity
  8
DEFPOINTS
 62
     0
100
AcDbPoint
 10
1064.584507584792
 20
157.7832255858714
 30
0.0
  0
ENDBLK
  5
712D
330
712B
100
AcDbEntity
  8
0
100
AcDbBlockEnd
  0
BLOCK
  5
713A
330
7139
100
AcDbEntity
  8
0
100
AcDbBlockBegin
  2
*D24
 70
     1
 10
0.0
 20
0.0
 30
0.0
  3
*D24
  1

  0
LINE
  5
71B9
330
7139
100
AcDbEntity
  8
标注
  6
Continuous
370
    -2
100
AcDbLine
 10
1062.703348501715
 20
140.7832595858683
 30
0.0
 11
1066.67110858557
 21
140.7832595858683
 31
0.0
  0
LINE
  5
71BA
330
7139
100
AcDbEntity
  8
标注
  6
Continuous
370
    -2
100
AcDbLine
 10
1062.703348501715
 20
158.7832235858561
 30
0.0
 11
1066.67110858557
 21
158.7832235858561
 31
0.0
  0
LINE
  5
71BB
330
7139
100
AcDbEntity
  8
标注
  6
Continuous
370
    -2
100
AcDbLine
 10
1066.35110858557
 20
141.4332595858683
 30
0.0
 11
1066.35110858557
 21
148.887777738659
 31
0.0
  0
LINE
  5
71BC
330
7139
100
AcDbEntity
  8
标注
  6
Continuous
370
    -2
100
AcDbLine
 10
1066.35110858557
 20
158.1332235858561
 30
0.0
 11
1066.35110858557
 21
150.6787054330655
 31
0.0
  0
SOLID
  5
71BD
330
7139
100
AcDbEntity
  8
标注
100
AcDbTrace
 10
1066.242775252236
 20
141.4332595858683
 30
0.0
 11
1066.459441918903
 21
141.4332595858683
 31
0.0
 12
1066.35110858557
 22
140.7832595858683
 32
0.0
 13
1066.35110858557
 23
140.7832595858683
 33
0.0
  0
SOLID
  5
71BE
330
7139
100
AcDbEntity
  8
标注
100
AcDbTrace
 10
1066.242775252236
 20
158.1332235858561
 30
0.0
 11
1066.459441918903
 21
158.1332235858561
 31
0.0
 12
1066.35110858557
 22
158.7832235858561
 32
0.0
 13
1066.35110858557
 23
158.7832235858561
 33
0.0
  0
MTEXT
  5
71BF
330
7139
100
AcDbEntity
  8
标注
100
AcDbMText
 10
1066.35110858557
 20
149.7832415858624
 30
0.0
 40
0.65
 41
0.0
 71
     5
 72
     1
  1
\A1;18"
 11
0.0000000000000001
 21
1.0
 31
0.0
 73
     1
 44
1.0
1001
ACAD
1000
MTEXTBEGIN
1070
    73
1070
     1
1070
    44
1040
1.0
1070
    74
1070
     0
1000
MTEXTEND
  0
POINT
  5
71C0
330
7139
100
AcDbEntity
  8
DEFPOINTS
 62
     0
100
AcDbPoint
 10
1061.823348501715
 20
140.7832595858683
 30
0.0
  0
POINT
  5
71C1
330
7139
100
AcDbEntity
  8
DEFPOINTS
 62
     0
100
AcDbPoint
 10
1061.823348501715
 20
158.7832235858561
 30
0.0
  0
POINT
  5
71C2
330
7139
100
AcDbEntity
  8
DEFPOINTS
 62
     0
100
AcDbPoint
 10
1066.35110858557
 20
158.7832235858561
 30
0.0
  0
ENDBLK
  5
713B
330
7139
100
AcDbEntity
  8
0
100
AcDbBlockEnd
  0
BLOCK
  5
7148
330
7147
100
AcDbEntity
  8
0
100
AcDbBlockBegin
  2
*D25
 70
     1
 10
0.0
 20
0.0
 30
0.0
  3
*D25
  1

  0
LINE
  5
71C3
330
7147
100
AcDbEntity
  8
标注
  6
Continuous
370
    -2
100
AcDbLine
 10
1063.7033465017
 20
184.6603955159369
 30
0.0
 11
1065.526175000432
 21
184.6603955159369
 31
0.0
  0
LINE
  5
71C4
330
7147
100
AcDbEntity
  8
标注
  6
Continuous
370
    -2
100
AcDbLine
 10
1063.7033465017
 20
174.6603955159369
 30
0.0
 11
1065.526175000432
 21
174.6603955159369
 31
0.0
  0
LINE
  5
71C5
330
7147
100
AcDbEntity
  8
标注
  6
Continuous
370
    -2
100
AcDbLine
 10
1065.206175000432
 20
184.0103955159369
 30
0.0
 11
1065.206175000432
 21
180.5558593631402
 31
0.0
  0
LINE
  5
71C6
330
7147
100
AcDbEntity
  8
标注
  6
Continuous
370
    -2
100
AcDbLine
 10
1065.206175000432
 20
175.3103955159369
 30
0.0
 11
1065.206175000432
 21
178.7649316687336
 31
0.0
  0
SOLID
  5
71C7
330
7147
100
AcDbEntity
  8
标注
100
AcDbTrace
 10
1065.097841667098
 20
184.0103955159369
 30
0.0
 11
1065.314508333765
 21
184.0103955159369
 31
0.0
 12
1065.206175000432
 22
184.6603955159369
 32
0.0
 13
1065.206175000432
 23
184.6603955159369
 33
0.0
  0
SOLID
  5
71C8
330
7147
100
AcDbEntity
  8
标注
100
AcDbTrace
 10
1065.097841667098
 20
175.3103955159369
 30
0.0
 11
1065.314508333765
 21
175.3103955159369
 31
0.0
 12
1065.206175000432
 22
174.6603955159369
 32
0.0
 13
1065.206175000432
 23
174.6603955159369
 33
0.0
  0
MTEXT
  5
71C9
330
7147
100
AcDbEntity
  8
标注
100
AcDbMText
 10
1065.206175000432
 20
179.660395515937
 30
0.0
 40
0.65
 41
0.0
 71
     5
 72
     1
  1
\A1;10"
 11
0.0000000000000001
 21
1.0
 31
0.0
 73
     1
 44
1.0
1001
ACAD
1000
MTEXTBEGIN
1070
    73
1070
     1
1070
    44
1040
1.0
1070
    74
1070
     0
1000
MTEXTEND
  0
POINT
  5
71CA
330
7147
100
AcDbEntity
  8
DEFPOINTS
 62
     0
100
AcDbPoint
 10
1062.8233465017
 20
184.6603955159369
 30
0.0
  0
POINT
  5
71CB
330
7147
100
AcDbEntity
  8
DEFPOINTS
 62
     0
100
AcDbPoint
 10
1062.8233465017
 20
174.6603955159369
 30
0.0
  0
POINT
  5
71CC
330
7147
100
AcDbEntity
  8
DEFPOINTS
 62
     0
100
AcDbPoint
 10
1065.206175000432
 20
174.6603955159369
 30
0.0
  0
ENDBLK
  5
7149
330
7147
100
AcDbEntity
  8
0
100
AcDbBlockEnd
  0
BLOCK
  5
7156
330
7155
100
AcDbEntity
  8
0
100
AcDbBlockBegin
  2
*D26
 70
     1
 10
0.0
 20
0.0
 30
0.0
  3
*D26
  1

  0
LINE
  5
71CD
330
7155
100
AcDbEntity
  8
标注
  6
Continuous
370
    -2
100
AcDbLine
 10
1029.943410501722
 20
184.6603955159369
 30
0.0
 11
1028.191210657702
 21
184.6603955159369
 31
0.0
  0
LINE
  5
71CE
330
7155
100
AcDbEntity
  8
标注
  6
Continuous
370
    -2
100
AcDbLine
 10
1029.943410501722
 20
174.6603955159369
 30
0.0
 11
1028.191210657702
 21
174.6603955159369
 31
0.0
  0
LINE
  5
71CF
330
7155
100
AcDbEntity
  8
标注
  6
Continuous
370
    -2
100
AcDbLine
 10
1028.511210657702
 20
184.0103955159369
 30
0.0
 11
1028.511210657702
 21
180.5558593631402
 31
0.0
  0
LINE
  5
71D0
330
7155
100
AcDbEntity
  8
标注
  6
Continuous
370
    -2
100
AcDbLine
 10
1028.511210657702
 20
175.3103955159369
 30
0.0
 11
1028.511210657702
 21
178.7649316687336
 31
0.0
  0
SOLID
  5
71D1
330
7155
100
AcDbEntity
  8
标注
100
AcDbTrace
 10
1028.402877324369
 20
184.0103955159369
 30
0.0
 11
1028.619543991035
 21
184.0103955159369
 31
0.0
 12
1028.511210657702
 22
184.6603955159369
 32
0.0
 13
1028.511210657702
 23
184.6603955159369
 33
0.0
  0
SOLID
  5
71D2
330
7155
100
AcDbEntity
  8
标注
100
AcDbTrace
 10
1028.402877324369
 20
175.3103955159369
 30
0.0
 11
1028.619543991035
 21
175.3103955159369
 31
0.0
 12
1028.511210657702
 22
174.6603955159369
 32
0.0
 13
1028.511210657702
 23
174.6603955159369
 33
0.0
  0
MTEXT
  5
71D3
330
7155
100
AcDbEntity
  8
标注
100
AcDbMText
 10
1028.511210657702
 20
179.660395515937
 30
0.0
 40
0.65
 41
0.0
 71
     5
 72
     1
  1
\A1;10"
 11
0.0000000000000001
 21
1.0
 31
0.0
 73
     1
 44
1.0
1001
ACAD
1000
MTEXTBEGIN
1070
    73
1070
     1
1070
    44
1040
1.0
1070
    74
1070
     0
1000
MTEXTEND
  0
POINT
  5
71D4
330
7155
100
AcDbEntity
  8
DEFPOINTS
 62
     0
100
AcDbPoint
 10
1030.823410501722
 20
184.6603955159369
 30
0.0
  0
POINT
  5
71D5
330
7155
100
AcDbEntity
  8
DEFPOINTS
 62
     0
100
AcDbPoint
 10
1030.823410501722
 20
174.6603955159369
 30
0.0
  0
POINT
  5
71D6
330
7155
100
AcDbEntity
  8
DEFPOINTS
 62
     0
100
AcDbPoint
 10
1028.511210657702
 20
174.6603955159369
 30
0.0
  0
ENDBLK
  5
7157
330
7155
100
AcDbEntity
  8
0
100
AcDbBlockEnd
  0
BLOCK
  5
7164
330
7163
100
AcDbEntity
  8
0
100
AcDbBlockBegin
  2
*D27
 70
     1
 10
0.0
 20
0.0
 30
0.0
  3
*D27
  1

  0
LINE
  5
71D7
330
7163
100
AcDbEntity
  8
标注
  6
Continuous
370
    -2
100
AcDbLine
 10
1031.352900161762
 20
174.4776646317604
 30
0.0
 11
1030.814684754121
 21
174.1132141207468
 31
0.0
  0
MTEXT
  5
71D8
330
7163
100
AcDbEntity
  8
标注
100
AcDbMText
 10
1032.909697407531
 20
176.0117271702921
 30
0.0
 40
0.65
 41
0.0
 71
     5
 72
     1
  1
\A1;R3/8"
 11
0.8280237040626413
 21
0.5606930938672093
 31
0.0
 73
     1
 44
1.0
1001
ACAD
1000
MTEXTBEGIN
1070
    73
1070
     1
1070
    44
1040
1.0
1070
    74
1070
     0
1000
MTEXTEND
  0
LINE
  5
71D9
330
7163
100
AcDbEntity
  8
标注
  6
Continuous
370
    -2
100
AcDbLine
 10
1032.217108501692
 20
175.0628600138295
 30
0.0
 11
1031.891115569403
 21
174.8421151427741
 31
0.0
  0
SOLID
  5
71DA
330
7163
100
AcDbEntity
  8
标注
100
AcDbTrace
 10
1031.292158409927
 20
174.5673671997006
 30
0.0
 11
1031.413641913598
 21
174.3879620638202
 31
0.0
 12
1031.891115569403
 22
174.8421151427741
 32
0.0
 13
1031.891115569403
 23
174.8421151427741
 33
0.0
  0
POINT
  5
71DB
330
7163
100
AcDbEntity
  8
DEFPOINTS
 62
     0
100
AcDbPoint
 10
1031.891115569403
 20
174.8421151427741
 30
0.0
  0
POINT
  5
71DC
330
7163
100
AcDbEntity
  8
DEFPOINTS
 62
     0
100
AcDbPoint
 10
1032.217108501692
 20
175.0628600138295
 30
0.0
  0
ENDBLK
  5
7165
330
7163
100
AcDbEntity
  8
0
100
AcDbBlockEnd
  0
BLOCK
  5
731F
330
731E
100
AcDbEntity
  8
0
100
AcDbBlockBegin
  2
*D28
 70
     1
 10
0.0
 20
0.0
 30
0.0
  3
*D28
  1

  0
LINE
  5
7321
330
731E
100
AcDbEntity
  8
标注
  6
Continuous
370
    -2
100
AcDbLine
 10
1089.056921980526
 20
104.6856341446124
 30
0.0
 11
1089.056921980526
 21
102.3917688782459
 31
0.0
  0
LINE
  5
7322
330
731E
100
AcDbEntity
  8
标注
  6
Continuous
370
    -2
100
AcDbLine
 10
1117.714344980523
 20
104.6856341446124
 30
0.0
 11
1117.714344980523
 21
102.3917688782459
 31
0.0
  0
LINE
  5
7323
330
731E
100
AcDbEntity
  8
标注
  6
Continuous
370
    -2
100
AcDbLine
 10
1089.706921980526
 20
102.7117688782459
 30
0.0
 11
1101.696735117632
 21
102.7117688782459
 31
0.0
  0
LINE
  5
7324
330
731E
100
AcDbEntity
  8
标注
  6
Continuous
370
    -2
100
AcDbLine
 10
1117.064344980523
 20
102.7117688782459
 30
0.0
 11
1105.074531843416
 21
102.7117688782459
 31
0.0
  0
SOLID
  5
7325
330
731E
100
AcDbEntity
  8
标注
100
AcDbTrace
 10
1089.706921980526
 20
102.8201022115793
 30
0.0
 11
1089.706921980526
 21
102.6034355449126
 31
0.0
 12
1089.056921980526
 22
102.7117688782459
 32
0.0
 13
1089.056921980526
 23
102.7117688782459
 33
0.0
  0
SOLID
  5
7326
330
731E
100
AcDbEntity
  8
标注
100
AcDbTrace
 10
1117.064344980523
 20
102.8201022115793
 30
0.0
 11
1117.064344980523
 21
102.6034355449126
 31
0.0
 12
1117.714344980523
 22
102.7117688782459
 32
0.0
 13
1117.714344980523
 23
102.7117688782459
 33
0.0
  0
MTEXT
  5
7327
330
731E
100
AcDbEntity
  8
标注
100
AcDbMText
 10
1103.385633480524
 20
102.7117688782459
 30
0.0
 40
0.65
 41
0.0
 71
     5
 72
     1
  1
\A1;28 5/8"
 73
     1
 44
1.0
1001
ACAD
1000
MTEXTBEGIN
1070
    73
1070
     1
1070
    44
1040
1.0
1070
    74
1070
     0
1000
MTEXTEND
  0
POINT
  5
7328
330
731E
100
AcDbEntity
  8
DEFPOINTS
 62
     0
100
AcDbPoint
 10
1089.056921980526
 20
105.5656341446124
 30
0.0
  0
POINT
  5
7329
330
731E
100
AcDbEntity
  8
DEFPOINTS
 62
     0
100
AcDbPoint
 10
1117.714344980523
 20
105.5656341446124
 30
0.0
  0
POINT
  5
732A
330
731E
100
AcDbEntity
  8
DEFPOINTS
 62
     0
100
AcDbPoint
 10
1117.714344980523
 20
102.7117688782459
 30
0.0
  0
ENDBLK
  5
7320
330
731E
100
AcDbEntity
  8
0
100
AcDbBlockEnd
  0
BLOCK
  5
732D
330
732C
100
AcDbEntity
  8
0
100
AcDbBlockBegin
  2
*D29
 70
     1
 10
0.0
 20
0.0
 30
0.0
  3
*D29
  1

  0
LINE
  5
732F
330
732C
100
AcDbEntity
  8
标注
  6
Continuous
370
    -2
100
AcDbLine
 10
1118.12190498054
 20
105.0931941446001
 30
0.0
 11
1120.138259186144
 21
105.0931941446001
 31
0.0
  0
LINE
  5
7330
330
732C
100
AcDbEntity
  8
标注
  6
Continuous
370
    -2
100
AcDbLine
 10
1118.121904980525
 20
121.2506421446128
 30
0.0
 11
1120.138259186144
 21
121.2506421446128
 31
0.0
  0
LINE
  5
7331
330
732C
100
AcDbEntity
  8
标注
  6
Continuous
370
    -2
100
AcDbLine
 10
1119.818259186144
 20
105.7431941446001
 30
0.0
 11
1119.818259186144
 21
111.519155525234
 31
0.0
  0
LINE
  5
7332
330
732C
100
AcDbEntity
  8
标注
  6
Continuous
370
    -2
100
AcDbLine
 10
1119.818259186144
 20
120.6006421446128
 30
0.0
 11
1119.818259186144
 21
114.8246807639789
 31
0.0
  0
SOLID
  5
7333
330
732C
100
AcDbEntity
  8
标注
100
AcDbTrace
 10
1119.709925852811
 20
105.7431941446001
 30
0.0
 11
1119.926592519478
 21
105.7431941446001
 31
0.0
 12
1119.818259186144
 22
105.0931941446001
 32
0.0
 13
1119.818259186144
 23
105.0931941446001
 33
0.0
  0
SOLID
  5
7334
330
732C
100
AcDbEntity
  8
标注
100
AcDbTrace
 10
1119.709925852811
 20
120.6006421446128
 30
0.0
 11
1119.926592519478
 21
120.6006421446128
 31
0.0
 12
1119.818259186144
 22
121.2506421446128
 32
0.0
 13
1119.818259186144
 23
121.2506421446128
 33
0.0
  0
MTEXT
  5
7335
330
732C
100
AcDbEntity
  8
标注
100
AcDbMText
 10
1119.818259186144
 20
113.1719181446066
 30
0.0
 40
0.65
 41
0.0
 71
     5
 72
     1
  1
\A1;16 1/8"
 11
0.0000000000000001
 21
1.0
 31
0.0
 73
     1
 44
1.0
1001
ACAD
1000
MTEXTBEGIN
1070
    73
1070
     1
1070
    44
1040
1.0
1070
    74
1070
     0
1000
MTEXTEND
  0
POINT
  5
7336
330
732C
100
AcDbEntity
  8
DEFPOINTS
 62
     0
100
AcDbPoint
 10
1117.24190498054
 20
105.0931941446001
 30
0.0
  0
POINT
  5
7337
330
732C
100
AcDbEntity
  8
DEFPOINTS
 62
     0
100
AcDbPoint
 10
1117.241904980525
 20
121.2506421446128
 30
0.0
  0
POINT
  5
7338
330
732C
100
AcDbEntity
  8
DEFPOINTS
 62
     0
100
AcDbPoint
 10
1119.818259186144
 20
121.2506421446128
 30
0.0
  0
ENDBLK
  5
732E
330
732C
100
AcDbEntity
  8
0
100
AcDbBlockEnd
  0
BLOCK
  5
733B
330
733A
100
AcDbEntity
  8
0
100
AcDbBlockBegin
  2
*D30
 70
     1
 10
0.0
 20
0.0
 30
0.0
  3
*D30
  1

  0
LINE
  5
733D
330
733A
100
AcDbEntity
  8
标注
  6
Continuous
370
    -2
100
AcDbLine
 10
1088.649361980538
 20
105.0931941446001
 30
0.0
 11
1085.890576979412
 21
105.0931941446001
 31
0.0
  0
LINE
  5
733E
330
733A
100
AcDbEntity
  8
标注
  6
Continuous
370
    -2
100
AcDbLine
 10
1088.649361980538
 20
123.2506381446114
 30
0.0
 11
1085.890576979412
 21
123.2506381446114
 31
0.0
  0
LINE
  5
733F
330
733A
100
AcDbEntity
  8
标注
  6
Continuous
370
    -2
100
AcDbLine
 10
1086.210576979412
 20
105.7431941446001
 30
0.0
 11
1086.210576979412
 21
112.5191535252333
 31
0.0
  0
LINE
  5
7340
330
733A
100
AcDbEntity
  8
标注
  6
Continuous
370
    -2
100
AcDbLine
 10
1086.210576979412
 20
122.6006381446114
 30
0.0
 11
1086.210576979412
 21
115.8246787639782
 31
0.0
  0
SOLID
  5
7341
330
733A
100
AcDbEntity
  8
标注
100
AcDbTrace
 10
1086.102243646079
 20
105.7431941446001
 30
0.0
 11
1086.318910312746
 21
105.7431941446001
 31
0.0
 12
1086.210576979412
 22
105.0931941446001
 32
0.0
 13
1086.210576979412
 23
105.0931941446001
 33
0.0
  0
SOLID
  5
7342
330
733A
100
AcDbEntity
  8
标注
100
AcDbTrace
 10
1086.102243646079
 20
122.6006381446114
 30
0.0
 11
1086.318910312746
 21
122.6006381446114
 31
0.0
 12
1086.210576979412
 22
123.2506381446114
 32
0.0
 13
1086.210576979412
 23
123.2506381446114
 33
0.0
  0
MTEXT
  5
7343
330
733A
100
AcDbEntity
  8
标注
100
AcDbMText
 10
1086.210576979412
 20
114.171916144606
 30
0.0
 40
0.65
 41
0.0
 71
     5
 72
     1
  1
\A1;18 1/8"
 11
0.0000000000000001
 21
1.0
 31
0.0
 73
     1
 44
1.0
1001
ACAD
1000
MTEXTBEGIN
1070
    73
1070
     1
1070
    44
1040
1.0
1070
    74
1070
     0
1000
MTEXTEND
  0
POINT
  5
7344
330
733A
100
AcDbEntity
  8
DEFPOINTS
 62
     0
100
AcDbPoint
 10
1089.529361980538
 20
105.0931941446001
 30
0.0
  0
POINT
  5
7345
330
733A
100
AcDbEntity
  8
DEFPOINTS
 62
     0
100
AcDbPoint
 10
1089.529361980538
 20
123.2506381446114
 30
0.0
  0
POINT
  5
7346
330
733A
100
AcDbEntity
  8
DEFPOINTS
 62
     0
100
AcDbPoint
 10
1086.210576979412
 20
123.2506381446114
 30
0.0
  0
ENDBLK
  5
733C
330
733A
100
AcDbEntity
  8
0
100
AcDbBlockEnd
  0
BLOCK
  5
7349
330
7348
100
AcDbEntity
  8
0
100
AcDbBlockBegin
  2
*D31
 70
     1
 10
0.0
 20
0.0
 30
0.0
  3
*D31
  1

  0
LINE
  5
7355
330
7348
100
AcDbEntity
  8
标注
  6
Continuous
370
    -2
100
AcDbLine
 10
1089.056921980526
 20
123.6581981445991
 30
0.0
 11
1089.056921980526
 21
125.6263981111345
 31
0.0
  0
LINE
  5
7356
330
7348
100
AcDbEntity
  8
标注
  6
Continuous
370
    -2
100
AcDbLine
 10
1103.21437398054
 20
123.6581981445991
 30
0.0
 11
1103.21437398054
 21
125.6263981111345
 31
0.0
  0
LINE
  5
7357
330
7348
100
AcDbEntity
  8
标注
  6
Continuous
370
    -2
100
AcDbLine
 10
1089.706921980526
 20
125.3063981111345
 30
0.0
 11
1094.482885361161
 21
125.3063981111345
 31
0.0
  0
LINE
  5
7358
330
7348
100
AcDbEntity
  8
标注
  6
Continuous
370
    -2
100
AcDbLine
 10
1102.56437398054
 20
125.3063981111345
 30
0.0
 11
1097.788410599905
 21
125.3063981111345
 31
0.0
  0
SOLID
  5
7359
330
7348
100
AcDbEntity
  8
标注
100
AcDbTrace
 10
1089.706921980526
 20
125.4147314444678
 30
0.0
 11
1089.706921980526
 21
125.1980647778011
 31
0.0
 12
1089.056921980526
 22
125.3063981111345
 32
0.0
 13
1089.056921980526
 23
125.3063981111345
 33
0.0
  0
SOLID
  5
735A
330
7348
100
AcDbEntity
  8
标注
100
AcDbTrace
 10
1102.56437398054
 20
125.4147314444678
 30
0.0
 11
1102.56437398054
 21
125.1980647778011
 31
0.0
 12
1103.21437398054
 22
125.3063981111345
 32
0.0
 13
1103.21437398054
 23
125.3063981111345
 33
0.0
  0
MTEXT
  5
735B
330
7348
100
AcDbEntity
  8
标注
100
AcDbMText
 10
1096.135647980533
 20
125.3063981111345
 30
0.0
 40
0.65
 41
0.0
 71
     5
 72
     1
  1
\A1;14 1/8"
 73
     1
 44
1.0
1001
ACAD
1000
MTEXTBEGIN
1070
    73
1070
     1
1070
    44
1040
1.0
1070
    74
1070
     0
1000
MTEXTEND
  0
POINT
  5
735C
330
7348
100
AcDbEntity
  8
DEFPOINTS
 62
     0
100
AcDbPoint
 10
1089.056921980526
 20
122.7781981445992
 30
0.0
  0
POINT
  5
735D
330
7348
100
AcDbEntity
  8
DEFPOINTS
 62
     0
100
AcDbPoint
 10
1103.21437398054
 20
122.7781981445992
 30
0.0
  0
POINT
  5
735E
330
7348
100
AcDbEntity
  8
DEFPOINTS
 62
     0
100
AcDbPoint
 10
1103.21437398054
 20
125.3063981111345
 30
0.0
  0
ENDBLK
  5
734A
330
7348
100
AcDbEntity
  8
0
100
AcDbBlockEnd
  0
BLOCK
  5
7361
330
7360
100
AcDbEntity
  8
0
100
AcDbBlockBegin
  2
*D32
 70
     1
 10
0.0
 20
0.0
 30
0.0
  3
*D32
  1

  0
LINE
  5
7373
330
7360
100
AcDbEntity
  8
标注
  6
Continuous
370
    -2
100
AcDbLine
 10
1088.600416129385
 20
104.9356094155321
 30
0.0
 11
1088.062467728363
 21
104.5707649036671
 31
0.0
  0
MTEXT
  5
7374
330
7360
100
AcDbEntity
  8
标注
100
AcDbMText
 10
1090.252077046784
 20
106.6012742698748
 30
0.0
 40
0.65
 41
0.0
 71
     5
 72
     1
  1
\A1;5-R1/2"
 11
0.8276129246490262
 21
0.5612992490230905
 31
0.0
 73
     1
 44
1.0
1001
ACAD
1000
MTEXTBEGIN
1070
    73
1070
     1
1070
    44
1040
1.0
1070
    74
1070
     0
1000
MTEXTEND
  0
LINE
  5
7375
330
7360
100
AcDbEntity
  8
标注
  6
Continuous
370
    -2
100
AcDbLine
 10
1089.529361980538
 20
105.5656341446125
 30
0.0
 11
1089.138364530407
 21
105.3004539273969
 31
0.0
  0
SOLID
  5
7376
330
7360
100
AcDbEntity
  8
标注
100
AcDbTrace
 10
1088.539608710741
 20
105.025267482369
 30
0.0
 11
1088.661223548029
 21
104.845951348695
 31
0.0
 12
1089.138364530407
 22
105.3004539273969
 32
0.0
 13
1089.138364530407
 23
105.3004539273969
 33
0.0
  0
POINT
  5
7377
330
7360
100
AcDbEntity
  8
DEFPOINTS
 62
     0
100
AcDbPoint
 10
1089.138364530407
 20
105.3004539273969
 30
0.0
  0
POINT
  5
7378
330
7360
100
AcDbEntity
  8
DEFPOINTS
 62
     0
100
AcDbPoint
 10
1089.529361980538
 20
105.5656341446125
 30
0.0
  0
ENDBLK
  5
7362
330
7360
100
AcDbEntity
  8
0
100
AcDbBlockEnd
  0
BLOCK
  5
736B
330
736A
100
AcDbEntity
  8
0
100
AcDbBlockBegin
  2
*D33
 70
     1
 10
0.0
 20
0.0
 30
0.0
  3
*D33
  1

  0
LINE
  5
736D
330
736A
100
AcDbEntity
  8
标注
  6
Continuous
370
    -2
100
AcDbLine
 10
1102.875767389031
 20
120.9006777404331
 30
0.0
 11
1102.419698322749
 21
120.4375352064538
 31
0.0
  0
MTEXT
  5
736E
330
736A
100
AcDbEntity
  8
标注
100
AcDbMText
 10
1101.959465458571
 20
120.9669595160036
 30
0.0
 40
0.65
 41
0.0
 71
     5
 72
     1
  1
\A1;R3/8"
 11
0.701644717356757
 21
0.7125269753527629
 31
0.0
 73
     1
 44
1.0
1001
ACAD
1000
MTEXTBEGIN
1070
    73
1070
     1
1070
    44
1040
1.0
1070
    74
1070
     0
1000
MTEXTEND
  0
LINE
  5
736F
330
736A
100
AcDbEntity
  8
标注
  6
Continuous
370
    -2
100
AcDbLine
 10
1103.608073980526
 20
121.6443421445988
 30
0.0
 11
1103.331836455312
 21
121.3638202744124
 31
0.0
  0
SOLID
  5
7370
330
736A
100
AcDbEntity
  8
标注
100
AcDbTrace
 10
1102.798576966701
 20
120.9766892514801
 30
0.0
 11
1102.952957811361
 21
120.8246662293861
 31
0.0
 12
1103.331836455312
 22
121.3638202744124
 32
0.0
 13
1103.331836455312
 23
121.3638202744124
 33
0.0
  0
POINT
  5
7371
330
736A
100
AcDbEntity
  8
DEFPOINTS
 62
     0
100
AcDbPoint
 10
1103.331836455312
 20
121.3638202744124
 30
0.0
  0
POINT
  5
7372
330
736A
100
AcDbEntity
  8
DEFPOINTS
 62
     0
100
AcDbPoint
 10
1103.608073980526
 20
121.6443421445988
 30
0.0
  0
ENDBLK
  5
736C
330
736A
100
AcDbEntity
  8
0
100
AcDbBlockEnd
  0
BLOCK
  5
7386
330
7385
100
AcDbEntity
  8
0
100
AcDbBlockBegin
  2
*D34
 70
     1
 10
0.0
 20
0.0
 30
0.0
  3
*D34
  1

  0
LINE
  5
7388
330
7385
100
AcDbEntity
  8
标注
  6
Continuous
370
    -2
100
AcDbLine
 10
1087.826134914264
 20
139.8318158697311
 30
0.0
 11
1087.826134914264
 21
137.3565026903683
 31
0.0
  0
LINE
  5
7389
330
7385
100
AcDbEntity
  8
标注
  6
Continuous
370
    -2
100
AcDbLine
 10
1101.826106914253
 20
139.8318158697311
 30
0.0
 11
1101.826106914253
 21
137.3565026903683
 31
0.0
  0
LINE
  5
738A
330
7385
100
AcDbEntity
  8
标注
  6
Continuous
370
    -2
100
AcDbLine
 10
1088.476134914264
 20
137.6765026903683
 30
0.0
 11
1093.930657067055
 21
137.6765026903683
 31
0.0
  0
LINE
  5
738B
330
7385
100
AcDbEntity
  8
标注
  6
Continuous
370
    -2
100
AcDbLine
 10
1101.176106914253
 20
137.6765026903683
 30
0.0
 11
1095.721584761462
 21
137.6765026903683
 31
0.0
  0
SOLID
  5
738C
330
7385
100
AcDbEntity
  8
标注
100
AcDbTrace
 10
1088.476134914264
 20
137.7848360237017
 30
0.0
 11
1088.476134914264
 21
137.568169357035
 31
0.0
 12
1087.826134914264
 22
137.6765026903683
 32
0.0
 13
1087.826134914264
 23
137.6765026903683
 33
0.0
  0
SOLID
  5
738D
330
7385
100
AcDbEntity
  8
标注
100
AcDbTrace
 10
1101.176106914253
 20
137.7848360237017
 30
0.0
 11
1101.176106914253
 21
137.568169357035
 31
0.0
 12
1101.826106914253
 22
137.6765026903683
 32
0.0
 13
1101.826106914253
 23
137.6765026903683
 33
0.0
  0
MTEXT
  5
738E
330
7385
100
AcDbEntity
  8
标注
100
AcDbMText
 10
1094.826120914259
 20
137.6765026903683
 30
0.0
 40
0.65
 41
0.0
 71
     5
 72
     1
  1
\A1;14"
 73
     1
 44
1.0
1001
ACAD
1000
MTEXTBEGIN
1070
    73
1070
     1
1070
    44
1040
1.0
1070
    74
1070
     0
1000
MTEXTEND
  0
POINT
  5
738F
330
7385
100
AcDbEntity
  8
DEFPOINTS
 62
     0
100
AcDbPoint
 10
1087.826134914264
 20
140.7118158697311
 30
0.0
  0
POINT
  5
7390
330
7385
100
AcDbEntity
  8
DEFPOINTS
 62
     0
100
AcDbPoint
 10
1101.826106914253
 20
140.7118158697311
 30
0.0
  0
POINT
  5
7391
330
7385
100
AcDbEntity
  8
DEFPOINTS
 62
     0
100
AcDbPoint
 10
1101.826106914253
 20
137.6765026903683
 30
0.0
  0
ENDBLK
  5
7387
330
7385
100
AcDbEntity
  8
0
100
AcDbBlockEnd
  0
BLOCK
  5
7394
330
7393
100
AcDbEntity
  8
0
100
AcDbBlockBegin
  2
*D35
 70
     1
 10
0.0
 20
0.0
 30
0.0
  3
*D35
  1

  0
LINE
  5
7396
330
7393
100
AcDbEntity
  8
标注
  6
Continuous
370
    -2
100
AcDbLine
 10
1102.826104914253
 20
139.8318158697311
 30
0.0
 11
1102.826104914253
 21
137.3565026903683
 31
0.0
  0
LINE
  5
7397
330
7393
100
AcDbEntity
  8
标注
  6
Continuous
370
    -2
100
AcDbLine
 10
1116.32607791425
 20
139.8318158697311
 30
0.0
 11
1116.32607791425
 21
137.3565026903683
 31
0.0
  0
LINE
  5
7398
330
7393
100
AcDbEntity
  8
标注
  6
Continuous
370
    -2
100
AcDbLine
 10
1103.476104914253
 20
137.6765026903683
 30
0.0
 11
1107.923328794879
 21
137.6765026903683
 31
0.0
  0
LINE
  5
7399
330
7393
100
AcDbEntity
  8
标注
  6
Continuous
370
    -2
100
AcDbLine
 10
1115.676077914251
 20
137.6765026903683
 30
0.0
 11
1111.228854033624
 21
137.6765026903683
 31
0.0
  0
SOLID
  5
739A
330
7393
100
AcDbEntity
  8
标注
100
AcDbTrace
 10
1103.476104914253
 20
137.7848360237017
 30
0.0
 11
1103.476104914253
 21
137.568169357035
 31
0.0
 12
1102.826104914253
 22
137.6765026903683
 32
0.0
 13
1102.826104914253
 23
137.6765026903683
 33
0.0
  0
SOLID
  5
739B
330
7393
100
AcDbEntity
  8
标注
100
AcDbTrace
 10
1115.676077914251
 20
137.7848360237017
 30
0.0
 11
1115.676077914251
 21
137.568169357035
 31
0.0
 12
1116.32607791425
 22
137.6765026903683
 32
0.0
 13
1116.32607791425
 23
137.6765026903683
 33
0.0
  0
MTEXT
  5
739C
330
7393
100
AcDbEntity
  8
标注
100
AcDbMText
 10
1109.576091414252
 20
137.6765026903683
 30
0.0
 40
0.65
 41
0.0
 71
     5
 72
     1
  1
\A1;13 1/2"
 73
     1
 44
1.0
1001
ACAD
1000
MTEXTBEGIN
1070
    73
1070
     1
1070
    44
1040
1.0
1070
    74
1070
     0
1000
MTEXTEND
  0
POINT
  5
739D
330
7393
100
AcDbEntity
  8
DEFPOINTS
 62
     0
100
AcDbPoint
 10
1102.826104914253
 20
140.7118158697311
 30
0.0
  0
POINT
  5
739E
330
7393
100
AcDbEntity
  8
DEFPOINTS
 62
     0
100
AcDbPoint
 10
1116.32607791425
 20
140.7118158697311
 30
0.0
  0
POINT
  5
739F
330
7393
100
AcDbEntity
  8
DEFPOINTS
 62
     0
100
AcDbPoint
 10
1116.32607791425
 20
137.6765026903683
 30
0.0
  0
ENDBLK
  5
7395
330
7393
100
AcDbEntity
  8
0
100
AcDbBlockEnd
  0
BLOCK
  5
73A2
330
73A1
100
AcDbEntity
  8
0
100
AcDbBlockBegin
  2
*D36
 70
     1
 10
0.0
 20
0.0
 30
0.0
  3
*D36
  1

  0
LINE
  5
73A4
330
73A1
100
AcDbEntity
  8
标注
  6
Continuous
370
    -2
100
AcDbLine
 10
1086.826136914264
 20
139.2530768697415
 30
0.0
 11
1086.826136914264
 21
135.5217993268533
 31
0.0
  0
LINE
  5
73A5
330
73A1
100
AcDbEntity
  8
标注
  6
Continuous
370
    -2
100
AcDbLine
 10
1117.326075914265
 20
139.2530768697415
 30
0.0
 11
1117.326075914265
 21
135.5217993268533
 31
0.0
  0
LINE
  5
73A6
330
73A1
100
AcDbEntity
  8
标注
  6
Continuous
370
    -2
100
AcDbLine
 10
1087.476136914264
 20
135.8417993268533
 30
0.0
 11
1100.392972035001
 21
135.8417993268533
 31
0.0
  0
LINE
  5
73A7
330
73A1
100
AcDbEntity
  8
标注
  6
Continuous
370
    -2
100
AcDbLine
 10
1116.676075914265
 20
135.8417993268533
 30
0.0
 11
1103.759240793528
 21
135.8417993268533
 31
0.0
  0
SOLID
  5
73A8
330
73A1
100
AcDbEntity
  8
标注
100
AcDbTrace
 10
1087.476136914264
 20
135.9501326601866
 30
0.0
 11
1087.476136914264
 21
135.73346599352
 31
0.0
 12
1086.826136914264
 22
135.8417993268533
 32
0.0
 13
1086.826136914264
 23
135.8417993268533
 33
0.0
  0
SOLID
  5
73A9
330
73A1
100
AcDbEntity
  8
标注
100
AcDbTrace
 10
1116.676075914265
 20
135.9501326601866
 30
0.0
 11
1116.676075914265
 21
135.73346599352
 31
0.0
 12
1117.326075914265
 22
135.8417993268533
 32
0.0
 13
1117.326075914265
 23
135.8417993268533
 33
0.0
  0
MTEXT
  5
73AA
330
73A1
100
AcDbEntity
  8
标注
100
AcDbMText
 10
1102.076106414265
 20
135.8417993268533
 30
0.0
 40
0.65
 41
0.0
 71
     5
 72
     1
  1
\A1;30 1/2"
 73
     1
 44
1.0
1001
ACAD
1000
MTEXTBEGIN
1070
    73
1070
     1
1070
    44
1040
1.0
1070
    74
1070
     0
1000
MTEXTEND
  0
POINT
  5
73AB
330
73A1
100
AcDbEntity
  8
DEFPOINTS
 62
     0
100
AcDbPoint
 10
1086.826136914264
 20
140.1330768697415
 30
0.0
  0
POINT
  5
73AC
330
73A1
100
AcDbEntity
  8
DEFPOINTS
 62
     0
100
AcDbPoint
 10
1117.326075914265
 20
140.1330768697415
 30
0.0
  0
POINT
  5
73AD
330
73A1
100
AcDbEntity
  8
DEFPOINTS
 62
     0
100
AcDbPoint
 10
1117.326075914265
 20
135.8417993268533
 30
0.0
  0
ENDBLK
  5
73A3
330
73A1
100
AcDbEntity
  8
0
100
AcDbBlockEnd
  0
BLOCK
  5
73B0
330
73AF
100
AcDbEntity
  8
0
100
AcDbBlockBegin
  2
*D37
 70
     1
 10
0.0
 20
0.0
 30
0.0
  3
*D37
  1

  0
LINE
  5
73B2
330
73AF
100
AcDbEntity
  8
标注
  6
Continuous
370
    -2
100
AcDbLine
 10
1116.812377914266
 20
140.3181158697451
 30
0.0
 11
1119.648475386316
 21
140.3181158697451
 31
0.0
  0
LINE
  5
73B3
330
73AF
100
AcDbEntity
  8
标注
  6
Continuous
370
    -2
100
AcDbLine
 10
1116.812377914266
 20
156.3180838697343
 30
0.0
 11
1119.648475386316
 21
156.3180838697343
 31
0.0
  0
LINE
  5
73B4
330
73AF
100
AcDbEntity
  8
标注
  6
Continuous
370
    -2
100
AcDbLine
 10
1119.328475386316
 20
140.9681158697451
 30
0.0
 11
1119.328475386316
 21
147.4226360225364
 31
0.0
  0
LINE
  5
73B5
330
73AF
100
AcDbEntity
  8
标注
  6
Continuous
370
    -2
100
AcDbLine
 10
1119.328475386316
 20
155.6680838697343
 30
0.0
 11
1119.328475386316
 21
149.213563716943
 31
0.0
  0
SOLID
  5
73B6
330
73AF
100
AcDbEntity
  8
标注
100
AcDbTrace
 10
1119.220142052982
 20
140.9681158697451
 30
0.0
 11
1119.436808719649
 21
140.9681158697451
 31
0.0
 12
1119.328475386316
 22
140.3181158697451
 32
0.0
 13
1119.328475386316
 23
140.3181158697451
 33
0.0
  0
SOLID
  5
73B7
330
73AF
100
AcDbEntity
  8
标注
100
AcDbTrace
 10
1119.220142052982
 20
155.6680838697343
 30
0.0
 11
1119.436808719649
 21
155.6680838697343
 31
0.0
 12
1119.328475386316
 22
156.3180838697343
 32
0.0
 13
1119.328475386316
 23
156.3180838697343
 33
0.0
  0
MTEXT
  5
73B8
330
73AF
100
AcDbEntity
  8
标注
100
AcDbMText
 10
1119.328475386316
 20
148.3180998697399
 30
0.0
 40
0.65
 41
0.0
 71
     5
 72
     1
  1
\A1;16"
 11
0.0000000000000001
 21
1.0
 31
0.0
 73
     1
 44
1.0
1001
ACAD
1000
MTEXTBEGIN
1070
    73
1070
     1
1070
    44
1040
1.0
1070
    74
1070
     0
1000
MTEXTEND
  0
POINT
  5
73B9
330
73AF
100
AcDbEntity
  8
DEFPOINTS
 62
     0
100
AcDbPoint
 10
1115.932377914265
 20
140.3181158697451
 30
0.0
  0
POINT
  5
73BA
330
73AF
100
AcDbEntity
  8
DEFPOINTS
 62
     0
100
AcDbPoint
 10
1115.932377914265
 20
156.3180838697343
 30
0.0
  0
POINT
  5
73BB
330
73AF
100
AcDbEntity
  8
DEFPOINTS
 62
     0
100
AcDbPoint
 10
1119.328475386316
 20
156.3180838697343
 30
0.0
  0
ENDBLK
  5
73B1
330
73AF
100
AcDbEntity
  8
0
100
AcDbBlockEnd
  0
BLOCK
  5
73BE
330
73BD
100
AcDbEntity
  8
0
100
AcDbBlockBegin
  2
*D38
 70
     1
 10
0.0
 20
0.0
 30
0.0
  3
*D38
  1

  0
LINE
  5
73C0
330
73BD
100
AcDbEntity
  8
标注
  6
Continuous
370
    -2
100
AcDbLine
 10
1117.206077914251
 20
139.3181178697313
 30
0.0
 11
1121.399578579382
 21
139.3181178697313
 31
0.0
  0
LINE
  5
73C1
330
73BD
100
AcDbEntity
  8
标注
  6
Continuous
370
    -2
100
AcDbLine
 10
1117.206077914251
 20
157.3180818697482
 30
0.0
 11
1121.399578579382
 21
157.3180818697482
 31
0.0
  0
LINE
  5
73C2
330
73BD
100
AcDbEntity
  8
标注
  6
Continuous
370
    -2
100
AcDbLine
 10
1121.079578579382
 20
139.9681178697313
 30
0.0
 11
1121.079578579382
 21
147.4226360225364
 31
0.0
  0
LINE
  5
73C3
330
73BD
100
AcDbEntity
  8
标注
  6
Continuous
370
    -2
100
AcDbLine
 10
1121.079578579382
 20
156.6680818697482
 30
0.0
 11
1121.079578579382
 21
149.213563716943
 31
0.0
  0
SOLID
  5
73C4
330
73BD
100
AcDbEntity
  8
标注
100
AcDbTrace
 10
1120.971245246049
 20
139.9681178697313
 30
0.0
 11
1121.187911912715
 21
139.9681178697313
 31
0.0
 12
1121.079578579382
 22
139.3181178697313
 32
0.0
 13
1121.079578579382
 23
139.3181178697313
 33
0.0
  0
SOLID
  5
73C5
330
73BD
100
AcDbEntity
  8
标注
100
AcDbTrace
 10
1120.971245246049
 20
156.6680818697482
 30
0.0
 11
1121.187911912715
 21
156.6680818697482
 31
0.0
 12
1121.079578579382
 22
157.3180818697482
 32
0.0
 13
1121.079578579382
 23
157.3180818697482
 33
0.0
  0
MTEXT
  5
73C6
330
73BD
100
AcDbEntity
  8
标注
100
AcDbMText
 10
1121.079578579382
 20
148.3180998697399
 30
0.0
 40
0.65
 41
0.0
 71
     5
 72
     1
  1
\A1;18"
 11
0.0000000000000001
 21
1.0
 31
0.0
 73
     1
 44
1.0
1001
ACAD
1000
MTEXTBEGIN
1070
    73
1070
     1
1070
    44
1040
1.0
1070
    74
1070
     0
1000
MTEXTEND
  0
POINT
  5
73C7
330
73BD
100
AcDbEntity
  8
DEFPOINTS
 62
     0
100
AcDbPoint
 10
1116.32607791425
 20
139.3181178697313
 30
0.0
  0
POINT
  5
73C8
330
73BD
100
AcDbEntity
  8
DEFPOINTS
 62
     0
100
AcDbPoint
 10
1116.32607791425
 20
157.3180818697482
 30
0.0
  0
POINT
  5
73C9
330
73BD
100
AcDbEntity
  8
DEFPOINTS
 62
     0
100
AcDbPoint
 10
1121.079578579382
 20
157.3180818697482
 30
0.0
  0
ENDBLK
  5
73BF
330
73BD
100
AcDbEntity
  8
0
100
AcDbBlockEnd
  0
BLOCK
  5
73CC
330
73CB
100
AcDbEntity
  8
0
100
AcDbBlockBegin
  2
*D39
 70
     1
 10
0.0
 20
0.0
 30
0.0
  3
*D39
  1

  0
LINE
  5
73CE
330
73CB
100
AcDbEntity
  8
标注
  6
Continuous
370
    -2
100
AcDbLine
 10
1087.339834914264
 20
140.3181158697452
 30
0.0
 11
1084.31469797616
 21
140.3181158697452
 31
0.0
  0
LINE
  5
73CF
330
73CB
100
AcDbEntity
  8
标注
  6
Continuous
370
    -2
100
AcDbLine
 10
1087.339834914264
 20
158.318079869747
 30
0.0
 11
1084.31469797616
 21
158.318079869747
 31
0.0
  0
LINE
  5
73D0
330
73CB
100
AcDbEntity
  8
标注
  6
Continuous
370
    -2
100
AcDbLine
 10
1084.63469797616
 20
140.9681158697452
 30
0.0
 11
1084.63469797616
 21
148.4226340225428
 31
0.0
  0
LINE
  5
73D1
330
73CB
100
AcDbEntity
  8
标注
  6
Continuous
370
    -2
100
AcDbLine
 10
1084.63469797616
 20
157.668079869747
 30
0.0
 11
1084.63469797616
 21
150.2135617169494
 31
0.0
  0
SOLID
  5
73D2
330
73CB
100
AcDbEntity
  8
标注
100
AcDbTrace
 10
1084.526364642827
 20
140.9681158697452
 30
0.0
 11
1084.743031309493
 21
140.9681158697452
 31
0.0
 12
1084.63469797616
 22
140.3181158697452
 32
0.0
 13
1084.63469797616
 23
140.3181158697452
 33
0.0
  0
SOLID
  5
73D3
330
73CB
100
AcDbEntity
  8
标注
100
AcDbTrace
 10
1084.526364642827
 20
157.668079869747
 30
0.0
 11
1084.743031309493
 21
157.668079869747
 31
0.0
 12
1084.63469797616
 22
158.318079869747
 32
0.0
 13
1084.63469797616
 23
158.318079869747
 33
0.0
  0
MTEXT
  5
73D4
330
73CB
100
AcDbEntity
  8
标注
100
AcDbMText
 10
1084.63469797616
 20
149.3180978697463
 30
0.0
 40
0.65
 41
0.0
 71
     5
 72
     1
  1
\A1;18"
 11
0.0000000000000001
 21
1.0
 31
0.0
 73
     1
 44
1.0
1001
ACAD
1000
MTEXTBEGIN
1070
    73
1070
     1
1070
    44
1040
1.0
1070
    74
1070
     0
1000
MTEXTEND
  0
POINT
  5
73D5
330
73CB
100
AcDbEntity
  8
DEFPOINTS
 62
     0
100
AcDbPoint
 10
1088.219834914264
 20
140.3181158697451
 30
0.0
  0
POINT
  5
73D6
330
73CB
100
AcDbEntity
  8
DEFPOINTS
 62
     0
100
AcDbPoint
 10
1088.219834914264
 20
158.3180798697469
 30
0.0
  0
POINT
  5
73D7
330
73CB
100
AcDbEntity
  8
DEFPOINTS
 62
     0
100
AcDbPoint
 10
1084.63469797616
 20
158.318079869747
 30
0.0
  0
ENDBLK
  5
73CD
330
73CB
100
AcDbEntity
  8
0
100
AcDbBlockEnd
  0
BLOCK
  5
73DA
330
73D9
100
AcDbEntity
  8
0
100
AcDbBlockBegin
  2
*D40
 70
     1
 10
0.0
 20
0.0
 30
0.0
  3
*D40
  1

  0
LINE
  5
73DC
330
73D9
100
AcDbEntity
  8
标注
  6
Continuous
370
    -2
100
AcDbLine
 10
1086.946134914264
 20
139.3181178697313
 30
0.0
 11
1082.726852525392
 21
139.3181178697313
 31
0.0
  0
LINE
  5
73DD
330
73D9
100
AcDbEntity
  8
标注
  6
Continuous
370
    -2
100
AcDbLine
 10
1086.946134914264
 20
159.3180778697468
 30
0.0
 11
1082.726852525392
 21
159.3180778697468
 31
0.0
  0
LINE
  5
73DE
330
73D9
100
AcDbEntity
  8
标注
  6
Continuous
370
    -2
100
AcDbLine
 10
1083.046852525392
 20
139.9681178697313
 30
0.0
 11
1083.046852525392
 21
148.386498279016
 31
0.0
  0
LINE
  5
73DF
330
73D9
100
AcDbEntity
  8
标注
  6
Continuous
370
    -2
100
AcDbLine
 10
1083.046852525392
 20
158.6680778697468
 30
0.0
 11
1083.046852525392
 21
150.2496974604621
 31
0.0
  0
SOLID
  5
73E0
330
73D9
100
AcDbEntity
  8
标注
100
AcDbTrace
 10
1082.938519192059
 20
139.9681178697313
 30
0.0
 11
1083.155185858726
 21
139.9681178697313
 31
0.0
 12
1083.046852525392
 22
139.3181178697313
 32
0.0
 13
1083.046852525392
 23
139.3181178697313
 33
0.0
  0
SOLID
  5
73E1
330
73D9
100
AcDbEntity
  8
标注
100
AcDbTrace
 10
1082.938519192059
 20
158.6680778697468
 30
0.0
 11
1083.155185858726
 21
158.6680778697468
 31
0.0
 12
1083.046852525392
 22
159.3180778697468
 32
0.0
 13
1083.046852525392
 23
159.3180778697468
 33
0.0
  0
MTEXT
  5
73E2
330
73D9
100
AcDbEntity
  8
标注
100
AcDbMText
 10
1083.046852525392
 20
149.3180978697392
 30
0.0
 40
0.65
 41
0.0
 71
     5
 72
     1
  1
\A1;20"
 11
0.0000000000000001
 21
1.0
 31
0.0
 73
     1
 44
1.0
1001
ACAD
1000
MTEXTBEGIN
1070
    73
1070
     1
1070
    44
1040
1.0
1070
    74
1070
     0
1000
MTEXTEND
  0
POINT
  5
73E3
330
73D9
100
AcDbEntity
  8
DEFPOINTS
 62
     0
100
AcDbPoint
 10
1087.826134914264
 20
139.3181178697313
 30
0.0
  0
POINT
  5
73E4
330
73D9
100
AcDbEntity
  8
DEFPOINTS
 62
     0
100
AcDbPoint
 10
1087.826134914264
 20
159.3180778697468
 30
0.0
  0
POINT
  5
73E5
330
73D9
100
AcDbEntity
  8
DEFPOINTS
 62
     0
100
AcDbPoint
 10
1083.046852525392
 20
159.3180778697468
 30
0.0
  0
ENDBLK
  5
73DB
330
73D9
100
AcDbEntity
  8
0
100
AcDbBlockEnd
  0
BLOCK
  5
73E8
330
73E7
100
AcDbEntity
  8
0
100
AcDbBlockBegin
  2
*D41
 70
     1
 10
0.0
 20
0.0
 30
0.0
  3
*D41
  1

  0
LINE
  5
73FE
330
73E7
100
AcDbEntity
  8
标注
  6
Continuous
370
    -2
100
AcDbLine
 10
1118.206075914265
 20
182.553668824868
 30
0.0
 11
1119.27042847519
 21
182.553668824868
 31
0.0
  0
LINE
  5
73FF
330
73E7
100
AcDbEntity
  8
标注
  6
Continuous
370
    -2
100
AcDbLine
 10
1117.403086721223
 20
174.4949172258675
 30
0.0
 11
1119.27042847519
 21
174.4949172258675
 31
0.0
  0
LINE
  5
7400
330
73E7
100
AcDbEntity
  8
标注
  6
Continuous
370
    -2
100
AcDbLine
 10
1118.95042847519
 20
181.903668824868
 30
0.0
 11
1118.95042847519
 21
179.1982868862137
 31
0.0
  0
LINE
  5
7401
330
73E7
100
AcDbEntity
  8
标注
  6
Continuous
370
    -2
100
AcDbLine
 10
1118.95042847519
 20
175.1449172258675
 30
0.0
 11
1118.95042847519
 21
177.850299164522
 31
0.0
  0
SOLID
  5
7402
330
73E7
100
AcDbEntity
  8
标注
100
AcDbTrace
 10
1118.842095141857
 20
181.903668824868
 30
0.0
 11
1119.058761808524
 21
181.903668824868
 31
0.0
 12
1118.95042847519
 22
182.553668824868
 32
0.0
 13
1118.95042847519
 23
182.553668824868
 33
0.0
  0
SOLID
  5
7403
330
73E7
100
AcDbEntity
  8
标注
100
AcDbTrace
 10
1118.842095141857
 20
175.1449172258675
 30
0.0
 11
1119.058761808524
 21
175.1449172258675
 31
0.0
 12
1118.95042847519
 22
174.4949172258675
 32
0.0
 13
1118.95042847519
 23
174.4949172258675
 33
0.0
  0
MTEXT
  5
7404
330
73E7
100
AcDbEntity
  8
标注
100
AcDbMText
 10
1118.95042847519
 20
178.524293025368
 30
0.0
 40
0.65
 41
0.0
 71
     5
 72
     1
  1
\A1;8"
 11
0.0000000000000001
 21
1.0
 31
0.0
 73
     1
 44
1.0
1001
ACAD
1000
MTEXTBEGIN
1070
    73
1070
     1
1070
    44
1040
1.0
1070
    74
1070
     0
1000
MTEXTEND
  0
POINT
  5
7405
330
73E7
100
AcDbEntity
  8
DEFPOINTS
 62
     0
100
AcDbPoint
 10
1117.326075914265
 20
182.553668824868
 30
0.0
  0
POINT
  5
7406
330
73E7
100
AcDbEntity
  8
DEFPOINTS
 62
     0
100
AcDbPoint
 10
1116.523086721223
 20
174.4949172258675
 30
0.0
  0
POINT
  5
7407
330
73E7
100
AcDbEntity
  8
DEFPOINTS
 62
     0
100
AcDbPoint
 10
1118.95042847519
 20
174.4949172258675
 30
0.0
  0
ENDBLK
  5
73E9
330
73E7
100
AcDbEntity
  8
0
100
AcDbBlockEnd
  0
BLOCK
  5
740A
330
7409
100
AcDbEntity
  8
0
100
AcDbBlockBegin
  2
*D42
 70
     1
 10
0.0
 20
0.0
 30
0.0
  3
*D42
  1

  0
LINE
  5
7416
330
7409
100
AcDbEntity
  8
标注
  6
Continuous
370
    -2
100
AcDbLine
 10
1085.946136914264
 20
182.553668824868
 30
0.0
 11
1084.314972872463
 21
182.553668824868
 31
0.0
  0
LINE
  5
7417
330
7409
100
AcDbEntity
  8
标注
  6
Continuous
370
    -2
100
AcDbLine
 10
1086.154729839747
 20
172.4949212258793
 30
0.0
 11
1084.314972872463
 21
172.4949212258793
 31
0.0
  0
LINE
  5
7418
330
7409
100
AcDbEntity
  8
标注
  6
Continuous
370
    -2
100
AcDbLine
 10
1084.634972872463
 20
181.903668824868
 30
0.0
 11
1084.634972872463
 21
178.4197588725769
 31
0.0
  0
LINE
  5
7419
330
7409
100
AcDbEntity
  8
标注
  6
Continuous
370
    -2
100
AcDbLine
 10
1084.634972872463
 20
173.1449212258793
 30
0.0
 11
1084.634972872463
 21
176.6288311781704
 31
0.0
  0
SOLID
  5
741A
330
7409
100
AcDbEntity
  8
标注
100
AcDbTrace
 10
1084.526639539129
 20
181.903668824868
 30
0.0
 11
1084.743306205796
 21
181.903668824868
 31
0.0
 12
1084.634972872463
 22
182.553668824868
 32
0.0
 13
1084.634972872463
 23
182.553668824868
 33
0.0
  0
SOLID
  5
741B
330
7409
100
AcDbEntity
  8
标注
100
AcDbTrace
 10
1084.526639539129
 20
173.1449212258793
 30
0.0
 11
1084.743306205796
 21
173.1449212258793
 31
0.0
 12
1084.634972872463
 22
172.4949212258793
 32
0.0
 13
1084.634972872463
 23
172.4949212258793
 33
0.0
  0
MTEXT
  5
741C
330
7409
100
AcDbEntity
  8
标注
100
AcDbMText
 10
1084.634972872463
 20
177.5242950253739
 30
0.0
 40
0.65
 41
0.0
 71
     5
 72
     1
  1
\A1;10"
 11
0.0000000000000001
 21
1.0
 31
0.0
 73
     1
 44
1.0
1001
ACAD
1000
MTEXTBEGIN
1070
    73
1070
     1
1070
    44
1040
1.0
1070
    74
1070
     0
1000
MTEXTEND
  0
POINT
  5
741D
330
7409
100
AcDbEntity
  8
DEFPOINTS
 62
     0
100
AcDbPoint
 10
1086.826136914264
 20
182.553668824868
 30
0.0
  0
POINT
  5
741E
330
7409
100
AcDbEntity
  8
DEFPOINTS
 62
     0
100
AcDbPoint
 10
1087.034729839747
 20
172.4949212258793
 30
0.0
  0
POINT
  5
741F
330
7409
100
AcDbEntity
  8
DEFPOINTS
 62
     0
100
AcDbPoint
 10
1084.634972872463
 20
172.4949212258793
 30
0.0
  0
ENDBLK
  5
740B
330
7409
100
AcDbEntity
  8
0
100
AcDbBlockEnd
  0
BLOCK
  5
7422
330
7421
100
AcDbEntity
  8
0
100
AcDbBlockBegin
  2
*D43
 70
     1
 10
0.0
 20
0.0
 30
0.0
  3
*D43
  1

  0
LINE
  5
7424
330
7421
100
AcDbEntity
  8
标注
  6
Continuous
370
    -2
100
AcDbLine
 10
1087.515670265289
 20
139.941451126811
 30
0.0
 11
1087.07712755969
 21
139.4616800403897
 31
0.0
  0
MTEXT
  5
7425
330
7421
100
AcDbEntity
  8
标注
100
AcDbMText
 10
1088.744095315714
 20
141.7915725005915
 30
0.0
 40
0.65
 41
0.0
 71
     5
 72
     1
  1
\A1;R3/8"
 11
0.6746810855368001
 21
0.7381093637252444
 31
0.0
 73
     1
 44
1.0
1001
ACAD
1000
MTEXTBEGIN
1070
    73
1070
     1
1070
    44
1040
1.0
1070
    74
1070
     0
1000
MTEXTEND
  0
LINE
  5
7426
330
7421
100
AcDbEntity
  8
标注
  6
Continuous
370
    -2
100
AcDbLine
 10
1088.219834914264
 20
140.7118158697312
 30
0.0
 11
1087.954212970888
 21
140.4212222132325
 31
0.0
  0
SOLID
  5
7427
330
7421
100
AcDbEntity
  8
标注
100
AcDbTrace
 10
1087.435708417552
 20
140.0145415777443
 30
0.0
 11
1087.595632113026
 21
139.868360675878
 31
0.0
 12
1087.954212970888
 22
140.4212222132325
 32
0.0
 13
1087.954212970888
 23
140.4212222132325
 33
0.0
  0
POINT
  5
7428
330
7421
100
AcDbEntity
  8
DEFPOINTS
 62
     0
100
AcDbPoint
 10
1087.954212970888
 20
140.4212222132325
 30
0.0
  0
POINT
  5
7429
330
7421
100
AcDbEntity
  8
DEFPOINTS
 62
     0
100
AcDbPoint
 10
1088.219834914264
 20
140.7118158697312
 30
0.0
  0
ENDBLK
  5
7423
330
7421
100
AcDbEntity
  8
0
100
AcDbBlockEnd
  0
BLOCK
  5
742C
330
742B
100
AcDbEntity
  8
0
100
AcDbBlockBegin
  2
*D44
 70
     1
 10
0.0
 20
0.0
 30
0.0
  3
*D44
  1

  0
LINE
  5
742E
330
742B
100
AcDbEntity
  8
标注
  6
Continuous
370
    -2
100
AcDbLine
 10
1087.579939687663
 20
158.7489062725828
 30
0.0
 11
1087.181422970895
 21
159.2624083918156
 31
0.0
  0
MTEXT
  5
742F
330
742B
100
AcDbEntity
  8
标注
100
AcDbMText
 10
1089.235754754161
 20
157.3364955598512
 30
0.0
 40
0.65
 41
0.0
 71
     5
 72
     1
  1
\A1;R3/8"
 11
0.6131026411813384
 21
-0.790003260358125
 31
0.0
 73
     1
 44
1.0
1001
ACAD
1000
MTEXTBEGIN
1070
    73
1070
     1
1070
    44
1040
1.0
1070
    74
1070
     0
1000
MTEXTEND
  0
LINE
  5
7430
330
742B
100
AcDbEntity
  8
标注
  6
Continuous
370
    -2
100
AcDbLine
 10
1088.219834914264
 20
157.924379869747
 30
0.0
 11
1087.978456404431
 21
158.2354041533501
 31
0.0
  0
SOLID
  5
7431
330
742B
100
AcDbEntity
  8
标注
100
AcDbTrace
 10
1087.665523374202
 20
158.8153257253775
 30
0.0
 11
1087.494356001124
 21
158.6824868197881
 31
0.0
 12
1087.978456404431
 22
158.2354041533501
 32
0.0
 13
1087.978456404431
 23
158.2354041533501
 33
0.0
  0
POINT
  5
7432
330
742B
100
AcDbEntity
  8
DEFPOINTS
 62
     0
100
AcDbPoint
 10
1087.978456404431
 20
158.2354041533501
 30
0.0
  0
POINT
  5
7433
330
742B
100
AcDbEntity
  8
DEFPOINTS
 62
     0
100
AcDbPoint
 10
1088.219834914264
 20
157.924379869747
 30
0.0
  0
ENDBLK
  5
742D
330
742B
100
AcDbEntity
  8
0
100
AcDbBlockEnd
  0
BLOCK
  5
7436
330
7435
100
AcDbEntity
  8
0
100
AcDbBlockBegin
  2
*D45
 70
     1
 10
0.0
 20
0.0
 30
0.0
  3
*D45
  1

  0
LINE
  5
7438
330
7435
100
AcDbEntity
  8
标注
  6
Continuous
370
    -2
100
AcDbLine
 10
1087.378015099274
 20
172.4005196330042
 30
0.0
 11
1086.853742914025
 21
172.0162818475444
 31
0.0
  0
MTEXT
  5
7439
330
7435
100
AcDbEntity
  8
标注
100
AcDbMText
 10
1088.841124194928
 20
173.9282861743121
 30
0.0
 40
0.65
 41
0.0
 71
     5
 72
     1
  1
\A1;R3/8"
 11
0.806572592689587
 21
0.5911350545535238
 31
0.0
 73
     1
 44
1.0
1001
ACAD
1000
MTEXTBEGIN
1070
    73
1070
     1
1070
    44
1040
1.0
1070
    74
1070
     0
1000
MTEXTEND
  0
LINE
  5
743A
330
7435
100
AcDbEntity
  8
标注
  6
Continuous
370
    -2
100
AcDbLine
 10
1088.219834914264
 20
173.0174872894418
 30
0.0
 11
1087.902287284522
 21
172.784757418464
 31
0.0
  0
SOLID
  5
743B
330
7435
100
AcDbEntity
  8
标注
100
AcDbTrace
 10
1087.313975468364
 20
172.4878983305455
 30
0.0
 11
1087.442054730184
 21
172.3131409354628
 31
0.0
 12
1087.902287284522
 22
172.784757418464
 32
0.0
 13
1087.902287284522
 23
172.784757418464
 33
0.0
  0
POINT
  5
743C
330
7435
100
AcDbEntity
  8
DEFPOINTS
 62
     0
100
AcDbPoint
 10
1087.902287284522
 20
172.784757418464
 30
0.0
  0
POINT
  5
743D
330
7435
100
AcDbEntity
  8
DEFPOINTS
 62
     0
100
AcDbPoint
 10
1088.219834914264
 20
173.0174872894418
 30
0.0
  0
ENDBLK
  5
7437
330
7435
100
AcDbEntity
  8
0
100
AcDbBlockEnd
  0
BLOCK
  5
74D4
330
74D3
100
AcDbEntity
  8
0
100
AcDbBlockBegin
  2
*D46
 70
     1
 10
0.0
 20
0.0
 30
0.0
  3
*D46
  1

  0
LINE
  5
74F6
330
74D3
100
AcDbEntity
  8
标注
  6
Continuous
370
    -2
100
AcDbLine
 10
1140.504928079052
 20
182.553668824868
 30
0.0
 11
1139.440575518127
 21
182.553668824868
 31
0.0
  0
LINE
  5
74F7
330
74D3
100
AcDbEntity
  8
标注
  6
Continuous
370
    -2
100
AcDbLine
 10
1141.307917272094
 20
174.4949172258675
 30
0.0
 11
1139.440575518127
 21
174.4949172258675
 31
0.0
  0
LINE
  5
74F8
330
74D3
100
AcDbEntity
  8
标注
  6
Continuous
370
    -2
100
AcDbLine
 10
1139.760575518127
 20
181.903668824868
 30
0.0
 11
1139.760575518127
 21
179.1982868862137
 31
0.0
  0
LINE
  5
74F9
330
74D3
100
AcDbEntity
  8
标注
  6
Continuous
370
    -2
100
AcDbLine
 10
1139.760575518127
 20
175.1449172258675
 30
0.0
 11
1139.760575518127
 21
177.850299164522
 31
0.0
  0
SOLID
  5
74FA
330
74D3
100
AcDbEntity
  8
标注
100
AcDbTrace
 10
1139.652242184792
 20
181.903668824868
 30
0.0
 11
1139.86890885146
 21
181.903668824868
 31
0.0
 12
1139.760575518127
 22
182.553668824868
 32
0.0
 13
1139.760575518127
 23
182.553668824868
 33
0.0
  0
SOLID
  5
74FB
330
74D3
100
AcDbEntity
  8
标注
100
AcDbTrace
 10
1139.652242184792
 20
175.1449172258675
 30
0.0
 11
1139.86890885146
 21
175.1449172258675
 31
0.0
 12
1139.760575518127
 22
174.4949172258675
 32
0.0
 13
1139.760575518127
 23
174.4949172258675
 33
0.0
  0
MTEXT
  5
74FC
330
74D3
100
AcDbEntity
  8
标注
100
AcDbMText
 10
1139.760575518127
 20
178.524293025368
 30
0.0
 40
0.65
 41
0.0
 71
     5
 72
     1
  1
\A1;8"
 11
0.0000000000000001
 21
1.0
 31
0.0
 73
     1
 44
1.0
1001
ACAD
1000
MTEXTBEGIN
1070
    73
1070
     1
1070
    44
1040
1.0
1070
    74
1070
     0
1000
MTEXTEND
  0
POINT
  5
74FD
330
74D3
100
AcDbEntity
  8
DEFPOINTS
 62
     0
100
AcDbPoint
 10
1141.384928079052
 20
182.553668824868
 30
0.0
  0
POINT
  5
74FE
330
74D3
100
AcDbEntity
  8
DEFPOINTS
 62
     0
100
AcDbPoint
 10
1142.187917272094
 20
174.4949172258675
 30
0.0
  0
POINT
  5
74FF
330
74D3
100
AcDbEntity
  8
DEFPOINTS
 62
     0
100
AcDbPoint
 10
1139.760575518127
 20
174.4949172258675
 30
0.0
  0
ENDBLK
  5
74D5
330
74D3
100
AcDbEntity
  8
0
100
AcDbBlockEnd
  0
BLOCK
  5
74E1
330
74E0
100
AcDbEntity
  8
0
100
AcDbBlockBegin
  2
*D47
 70
     1
 10
0.0
 20
0.0
 30
0.0
  3
*D47
  1

  0
LINE
  5
7500
330
74E0
100
AcDbEntity
  8
标注
  6
Continuous
370
    -2
100
AcDbLine
 10
1172.764867079053
 20
182.553668824868
 30
0.0
 11
1174.396031120854
 21
182.553668824868
 31
0.0
  0
LINE
  5
7501
330
74E0
100
AcDbEntity
  8
标注
  6
Continuous
370
    -2
100
AcDbLine
 10
1172.556274153571
 20
172.4949212258793
 30
0.0
 11
1174.396031120854
 21
172.4949212258793
 31
0.0
  0
LINE
  5
7502
330
74E0
100
AcDbEntity
  8
标注
  6
Continuous
370
    -2
100
AcDbLine
 10
1174.076031120854
 20
181.903668824868
 30
0.0
 11
1174.076031120854
 21
178.4197588725769
 31
0.0
  0
LINE
  5
7503
330
74E0
100
AcDbEntity
  8
标注
  6
Continuous
370
    -2
100
AcDbLine
 10
1174.076031120854
 20
173.1449212258793
 30
0.0
 11
1174.076031120854
 21
176.6288311781704
 31
0.0
  0
SOLID
  5
7504
330
74E0
100
AcDbEntity
  8
标注
100
AcDbTrace
 10
1173.967697787521
 20
181.903668824868
 30
0.0
 11
1174.184364454188
 21
181.903668824868
 31
0.0
 12
1174.076031120854
 22
182.553668824868
 32
0.0
 13
1174.076031120854
 23
182.553668824868
 33
0.0
  0
SOLID
  5
7505
330
74E0
100
AcDbEntity
  8
标注
100
AcDbTrace
 10
1173.967697787521
 20
173.1449212258793
 30
0.0
 11
1174.184364454188
 21
173.1449212258793
 31
0.0
 12
1174.076031120854
 22
172.4949212258793
 32
0.0
 13
1174.076031120854
 23
172.4949212258793
 33
0.0
  0
MTEXT
  5
7506
330
74E0
100
AcDbEntity
  8
标注
100
AcDbMText
 10
1174.076031120854
 20
177.5242950253739
 30
0.0
 40
0.65
 41
0.0
 71
     5
 72
     1
  1
\A1;10"
 11
0.0000000000000001
 21
1.0
 31
0.0
 73
     1
 44
1.0
1001
ACAD
1000
MTEXTBEGIN
1070
    73
1070
     1
1070
    44
1040
1.0
1070
    74
1070
     0
1000
MTEXTEND
  0
POINT
  5
7507
330
74E0
100
AcDbEntity
  8
DEFPOINTS
 62
     0
100
AcDbPoint
 10
1171.884867079053
 20
182.553668824868
 30
0.0
  0
POINT
  5
7508
330
74E0
100
AcDbEntity
  8
DEFPOINTS
 62
     0
100
AcDbPoint
 10
1171.676274153571
 20
172.4949212258793
 30
0.0
  0
POINT
  5
7509
330
74E0
100
AcDbEntity
  8
DEFPOINTS
 62
     0
100
AcDbPoint
 10
1174.076031120854
 20
172.4949212258793
 30
0.0
  0
ENDBLK
  5
74E2
330
74E0
100
AcDbEntity
  8
0
100
AcDbBlockEnd
  0
BLOCK
  5
74EE
330
74ED
100
AcDbEntity
  8
0
100
AcDbBlockBegin
  2
*D48
 70
     1
 10
0.0
 20
0.0
 30
0.0
  3
*D48
  1

  0
LINE
  5
750A
330
74ED
100
AcDbEntity
  8
标注
  6
Continuous
370
    -2
100
AcDbLine
 10
1171.332988894044
 20
172.4005196330042
 30
0.0
 11
1171.857261079292
 21
172.0162818475444
 31
0.0
  0
MTEXT
  5
750B
330
74ED
100
AcDbEntity
  8
标注
100
AcDbMText
 10
1169.869879798389
 20
173.9282861743121
 30
0.0
 40
0.65
 41
0.0
 71
     5
 72
     1
  1
\A1;R3/8"
 11
0.8065725926895872
 21
-0.5911350545535236
 31
0.0
 73
     1
 44
1.0
1001
ACAD
1000
MTEXTBEGIN
1070
    73
1070
     1
1070
    44
1040
1.0
1070
    74
1070
     0
1000
MTEXTEND
  0
LINE
  5
750C
330
74ED
100
AcDbEntity
  8
标注
  6
Continuous
370
    -2
100
AcDbLine
 10
1170.491169079054
 20
173.0174872894418
 30
0.0
 11
1170.808716708795
 21
172.784757418464
 31
0.0
  0
SOLID
  5
750D
330
74ED
100
AcDbEntity
  8
标注
100
AcDbTrace
 10
1171.397028524954
 20
172.4878983305456
 30
0.0
 11
1171.268949263134
 21
172.3131409354628
 31
0.0
 12
1170.808716708795
 22
172.784757418464
 32
0.0
 13
1170.808716708795
 23
172.784757418464
 33
0.0
  0
ARC
  5
750E
330
74ED
100
AcDbEntity
  8
标注
  6
Continuous
370
    -2
100
AcDbCircle
 10
1170.491169079054
 20
173.0174872894418
 30
0.0
 40
0.3937000000000807
100
AcDbArc
 50
268.265603474686
 51
10.33250617759925
  0
POINT
  5
750F
330
74ED
100
AcDbEntity
  8
DEFPOINTS
 62
     0
100
AcDbPoint
 10
1170.808716708795
 20
172.784757418464
 30
0.0
  0
POINT
  5
7510
330
74ED
100
AcDbEntity
  8
DEFPOINTS
 62
     0
100
AcDbPoint
 10
1170.491169079054
 20
173.0174872894418
 30
0.0
  0
ENDBLK
  5
74EF
330
74ED
100
AcDbEntity
  8
0
100
AcDbBlockEnd
  0
BLOCK
  5
75A4
330
75A3
100
AcDbEntity
  8
0
100
AcDbBlockBegin
  2
*D49
 70
     1
 10
0.0
 20
0.0
 30
0.0
  3
*D49
  1

  0
LINE
  5
762A
330
75A3
100
AcDbEntity
  8
标注
  6
Continuous
370
    -2
100
AcDbLine
 10
1173.636060880773
 20
139.8318158697311
 30
0.0
 11
1173.636060880773
 21
137.3565026903683
 31
0.0
  0
LINE
  5
762B
330
75A3
100
AcDbEntity
  8
标注
  6
Continuous
370
    -2
100
AcDbLine
 10
1159.636088880784
 20
139.8318158697311
 30
0.0
 11
1159.636088880784
 21
137.3565026903683
 31
0.0
  0
LINE
  5
762C
330
75A3
100
AcDbEntity
  8
标注
  6
Continuous
370
    -2
100
AcDbLine
 10
1172.986060880773
 20
137.6765026903683
 30
0.0
 11
1167.531538727982
 21
137.6765026903683
 31
0.0
  0
LINE
  5
762D
330
75A3
100
AcDbEntity
  8
标注
  6
Continuous
370
    -2
100
AcDbLine
 10
1160.286088880784
 20
137.6765026903683
 30
0.0
 11
1165.740611033575
 21
137.6765026903683
 31
0.0
  0
SOLID
  5
762E
330
75A3
100
AcDbEntity
  8
标注
100
AcDbTrace
 10
1172.986060880773
 20
137.7848360237017
 30
0.0
 11
1172.986060880773
 21
137.568169357035
 31
0.0
 12
1173.636060880773
 22
137.6765026903683
 32
0.0
 13
1173.636060880773
 23
137.6765026903683
 33
0.0
  0
SOLID
  5
762F
330
75A3
100
AcDbEntity
  8
标注
100
AcDbTrace
 10
1160.286088880784
 20
137.7848360237017
 30
0.0
 11
1160.286088880784
 21
137.568169357035
 31
0.0
 12
1159.636088880784
 22
137.6765026903683
 32
0.0
 13
1159.636088880784
 23
137.6765026903683
 33
0.0
  0
MTEXT
  5
7630
330
75A3
100
AcDbEntity
  8
标注
100
AcDbMText
 10
1166.636074880779
 20
137.6765026903683
 30
0.0
 40
0.65
 41
0.0
 71
     5
 72
     1
  1
\A1;14"
 73
     1
 44
1.0
1001
ACAD
1000
MTEXTBEGIN
1070
    73
1070
     1
1070
    44
1040
1.0
1070
    74
1070
     0
1000
MTEXTEND
  0
POINT
  5
7631
330
75A3
100
AcDbEntity
  8
DEFPOINTS
 62
     0
100
AcDbPoint
 10
1173.636060880773
 20
140.7118158697311
 30
0.0
  0
POINT
  5
7632
330
75A3
100
AcDbEntity
  8
DEFPOINTS
 62
     0
100
AcDbPoint
 10
1159.636088880784
 20
140.7118158697311
 30
0.0
  0
POINT
  5
7633
330
75A3
100
AcDbEntity
  8
DEFPOINTS
 62
     0
100
AcDbPoint
 10
1159.636088880784
 20
137.6765026903683
 30
0.0
  0
ENDBLK
  5
75A5
330
75A3
100
AcDbEntity
  8
0
100
AcDbBlockEnd
  0
BLOCK
  5
75B1
330
75B0
100
AcDbEntity
  8
0
100
AcDbBlockBegin
  2
*D50
 70
     1
 10
0.0
 20
0.0
 30
0.0
  3
*D50
  1

  0
LINE
  5
7634
330
75B0
100
AcDbEntity
  8
标注
  6
Continuous
370
    -2
100
AcDbLine
 10
1158.636090880784
 20
139.8318158697311
 30
0.0
 11
1158.636090880784
 21
137.3565026903683
 31
0.0
  0
LINE
  5
7635
330
75B0
100
AcDbEntity
  8
标注
  6
Continuous
370
    -2
100
AcDbLine
 10
1145.136117880786
 20
139.8318158697311
 30
0.0
 11
1145.136117880786
 21
137.3565026903683
 31
0.0
  0
LINE
  5
7636
330
75B0
100
AcDbEntity
  8
标注
  6
Continuous
370
    -2
100
AcDbLine
 10
1157.986090880784
 20
137.6765026903683
 30
0.0
 11
1153.538867000158
 21
137.6765026903683
 31
0.0
  0
LINE
  5
7637
330
75B0
100
AcDbEntity
  8
标注
  6
Continuous
370
    -2
100
AcDbLine
 10
1145.786117880786
 20
137.6765026903683
 30
0.0
 11
1150.233341761413
 21
137.6765026903683
 31
0.0
  0
SOLID
  5
7638
330
75B0
100
AcDbEntity
  8
标注
100
AcDbTrace
 10
1157.986090880784
 20
137.7848360237017
 30
0.0
 11
1157.986090880784
 21
137.568169357035
 31
0.0
 12
1158.636090880784
 22
137.6765026903683
 32
0.0
 13
1158.636090880784
 23
137.6765026903683
 33
0.0
  0
SOLID
  5
7639
330
75B0
100
AcDbEntity
  8
标注
100
AcDbTrace
 10
1145.786117880786
 20
137.7848360237017
 30
0.0
 11
1145.786117880786
 21
137.568169357035
 31
0.0
 12
1145.136117880786
 22
137.6765026903683
 32
0.0
 13
1145.136117880786
 23
137.6765026903683
 33
0.0
  0
MTEXT
  5
763A
330
75B0
100
AcDbEntity
  8
标注
100
AcDbMText
 10
1151.886104380785
 20
137.6765026903683
 30
0.0
 40
0.65
 41
0.0
 71
     5
 72
     1
  1
\A1;13 1/2"
 73
     1
 44
1.0
1001
ACAD
1000
MTEXTBEGIN
1070
    73
1070
     1
1070
    44
1040
1.0
1070
    74
1070
     0
1000
MTEXTEND
  0
POINT
  5
763B
330
75B0
100
AcDbEntity
  8
DEFPOINTS
 62
     0
100
AcDbPoint
 10
1158.636090880784
 20
140.7118158697311
 30
0.0
  0
POINT
  5
763C
330
75B0
100
AcDbEntity
  8
DEFPOINTS
 62
     0
100
AcDbPoint
 10
1145.136117880786
 20
140.7118158697311
 30
0.0
  0
POINT
  5
763D
330
75B0
100
AcDbEntity
  8
DEFPOINTS
 62
     0
100
AcDbPoint
 10
1145.136117880786
 20
137.6765026903683
 30
0.0
  0
ENDBLK
  5
75B2
330
75B0
100
AcDbEntity
  8
0
100
AcDbBlockEnd
  0
BLOCK
  5
75BE
330
75BD
100
AcDbEntity
  8
0
100
AcDbBlockBegin
  2
*D51
 70
     1
 10
0.0
 20
0.0
 30
0.0
  3
*D51
  1

  0
LINE
  5
763E
330
75BD
100
AcDbEntity
  8
标注
  6
Continuous
370
    -2
100
AcDbLine
 10
1174.636058880773
 20
139.2530768697415
 30
0.0
 11
1174.636058880773
 21
135.5217993268533
 31
0.0
  0
LINE
  5
763F
330
75BD
100
AcDbEntity
  8
标注
  6
Continuous
370
    -2
100
AcDbLine
 10
1144.136119880772
 20
139.2530768697415
 30
0.0
 11
1144.136119880772
 21
135.5217993268533
 31
0.0
  0
LINE
  5
7640
330
75BD
100
AcDbEntity
  8
标注
  6
Continuous
370
    -2
100
AcDbLine
 10
1173.986058880773
 20
135.8417993268533
 30
0.0
 11
1161.069223760036
 21
135.8417993268533
 31
0.0
  0
LINE
  5
7641
330
75BD
100
AcDbEntity
  8
标注
  6
Continuous
370
    -2
100
AcDbLine
 10
1144.786119880772
 20
135.8417993268533
 30
0.0
 11
1157.702955001509
 21
135.8417993268533
 31
0.0
  0
SOLID
  5
7642
330
75BD
100
AcDbEntity
  8
标注
100
AcDbTrace
 10
1173.986058880773
 20
135.9501326601866
 30
0.0
 11
1173.986058880773
 21
135.73346599352
 31
0.0
 12
1174.636058880773
 22
135.8417993268533
 32
0.0
 13
1174.636058880773
 23
135.8417993268533
 33
0.0
  0
SOLID
  5
7643
330
75BD
100
AcDbEntity
  8
标注
100
AcDbTrace
 10
1144.786119880772
 20
135.9501326601866
 30
0.0
 11
1144.786119880772
 21
135.73346599352
 31
0.0
 12
1144.136119880772
 22
135.8417993268533
 32
0.0
 13
1144.136119880772
 23
135.8417993268533
 33
0.0
  0
MTEXT
  5
7644
330
75BD
100
AcDbEntity
  8
标注
100
AcDbMText
 10
1159.386089380773
 20
135.8417993268533
 30
0.0
 40
0.65
 41
0.0
 71
     5
 72
     1
  1
\A1;30 1/2"
 73
     1
 44
1.0
1001
ACAD
1000
MTEXTBEGIN
1070
    73
1070
     1
1070
    44
1040
1.0
1070
    74
1070
     0
1000
MTEXTEND
  0
POINT
  5
7645
330
75BD
100
AcDbEntity
  8
DEFPOINTS
 62
     0
100
AcDbPoint
 10
1174.636058880773
 20
140.1330768697415
 30
0.0
  0
POINT
  5
7646
330
75BD
100
AcDbEntity
  8
DEFPOINTS
 62
     0
100
AcDbPoint
 10
1144.136119880772
 20
140.1330768697415
 30
0.0
  0
POINT
  5
7647
330
75BD
100
AcDbEntity
  8
DEFPOINTS
 62
     0
100
AcDbPoint
 10
1144.136119880772
 20
135.8417993268533
 30
0.0
  0
ENDBLK
  5
75BF
330
75BD
100
AcDbEntity
  8
0
100
AcDbBlockEnd
  0
BLOCK
  5
75CB
330
75CA
100
AcDbEntity
  8
0
100
AcDbBlockBegin
  2
*D52
 70
     1
 10
0.0
 20
0.0
 30
0.0
  3
*D52
  1

  0
LINE
  5
7648
330
75CA
100
AcDbEntity
  8
标注
  6
Continuous
370
    -2
100
AcDbLine
 10
1144.649817880772
 20
140.3181158697451
 30
0.0
 11
1141.813720408721
 21
140.3181158697451
 31
0.0
  0
LINE
  5
7649
330
75CA
100
AcDbEntity
  8
标注
  6
Continuous
370
    -2
100
AcDbLine
 10
1144.649817880772
 20
156.3180838697343
 30
0.0
 11
1141.813720408721
 21
156.3180838697343
 31
0.0
  0
LINE
  5
764A
330
75CA
100
AcDbEntity
  8
标注
  6
Continuous
370
    -2
100
AcDbLine
 10
1142.133720408722
 20
140.9681158697451
 30
0.0
 11
1142.133720408722
 21
147.4226360225364
 31
0.0
  0
LINE
  5
764B
330
75CA
100
AcDbEntity
  8
标注
  6
Continuous
370
    -2
100
AcDbLine
 10
1142.133720408722
 20
155.6680838697343
 30
0.0
 11
1142.133720408722
 21
149.213563716943
 31
0.0
  0
SOLID
  5
764C
330
75CA
100
AcDbEntity
  8
标注
100
AcDbTrace
 10
1142.025387075388
 20
140.9681158697451
 30
0.0
 11
1142.242053742055
 21
140.9681158697451
 31
0.0
 12
1142.133720408722
 22
140.3181158697451
 32
0.0
 13
1142.133720408722
 23
140.3181158697451
 33
0.0
  0
SOLID
  5
764D
330
75CA
100
AcDbEntity
  8
标注
100
AcDbTrace
 10
1142.025387075388
 20
155.6680838697343
 30
0.0
 11
1142.242053742055
 21
155.6680838697343
 31
0.0
 12
1142.133720408722
 22
156.3180838697343
 32
0.0
 13
1142.133720408722
 23
156.3180838697343
 33
0.0
  0
MTEXT
  5
764E
330
75CA
100
AcDbEntity
  8
标注
100
AcDbMText
 10
1142.133720408722
 20
148.3180998697399
 30
0.0
 40
0.65
 41
0.0
 71
     5
 72
     1
  1
\A1;16"
 11
0.0000000000000001
 21
1.0
 31
0.0
 73
     1
 44
1.0
1001
ACAD
1000
MTEXTBEGIN
1070
    73
1070
     1
1070
    44
1040
1.0
1070
    74
1070
     0
1000
MTEXTEND
  0
POINT
  5
764F
330
75CA
100
AcDbEntity
  8
DEFPOINTS
 62
     0
100
AcDbPoint
 10
1145.529817880772
 20
140.3181158697451
 30
0.0
  0
POINT
  5
7650
330
75CA
100
AcDbEntity
  8
DEFPOINTS
 62
     0
100
AcDbPoint
 10
1145.529817880772
 20
156.3180838697343
 30
0.0
  0
POINT
  5
7651
330
75CA
100
AcDbEntity
  8
DEFPOINTS
 62
     0
100
AcDbPoint
 10
1142.133720408722
 20
156.3180838697343
 30
0.0
  0
ENDBLK
  5
75CC
330
75CA
100
AcDbEntity
  8
0
100
AcDbBlockEnd
  0
BLOCK
  5
75D8
330
75D7
100
AcDbEntity
  8
0
100
AcDbBlockBegin
  2
*D53
 70
     1
 10
0.0
 20
0.0
 30
0.0
  3
*D53
  1

  0
LINE
  5
7652
330
75D7
100
AcDbEntity
  8
标注
  6
Continuous
370
    -2
100
AcDbLine
 10
1144.256117880786
 20
139.3181178697313
 30
0.0
 11
1140.062617215655
 21
139.3181178697313
 31
0.0
  0
LINE
  5
7653
330
75D7
100
AcDbEntity
  8
标注
  6
Continuous
370
    -2
100
AcDbLine
 10
1144.256117880786
 20
157.3180818697482
 30
0.0
 11
1140.062617215655
 21
157.3180818697482
 31
0.0
  0
LINE
  5
7654
330
75D7
100
AcDbEntity
  8
标注
  6
Continuous
370
    -2
100
AcDbLine
 10
1140.382617215655
 20
139.9681178697313
 30
0.0
 11
1140.382617215655
 21
147.4226360225364
 31
0.0
  0
LINE
  5
7655
330
75D7
100
AcDbEntity
  8
标注
  6
Continuous
370
    -2
100
AcDbLine
 10
1140.382617215655
 20
156.6680818697482
 30
0.0
 11
1140.382617215655
 21
149.213563716943
 31
0.0
  0
SOLID
  5
7656
330
75D7
100
AcDbEntity
  8
标注
100
AcDbTrace
 10
1140.274283882322
 20
139.9681178697313
 30
0.0
 11
1140.490950548989
 21
139.9681178697313
 31
0.0
 12
1140.382617215655
 22
139.3181178697313
 32
0.0
 13
1140.382617215655
 23
139.3181178697313
 33
0.0
  0
SOLID
  5
7657
330
75D7
100
AcDbEntity
  8
标注
100
AcDbTrace
 10
1140.274283882322
 20
156.6680818697482
 30
0.0
 11
1140.490950548989
 21
156.6680818697482
 31
0.0
 12
1140.382617215655
 22
157.3180818697482
 32
0.0
 13
1140.382617215655
 23
157.3180818697482
 33
0.0
  0
MTEXT
  5
7658
330
75D7
100
AcDbEntity
  8
标注
100
AcDbMText
 10
1140.382617215655
 20
148.3180998697399
 30
0.0
 40
0.65
 41
0.0
 71
     5
 72
     1
  1
\A1;18"
 11
0.0000000000000001
 21
1.0
 31
0.0
 73
     1
 44
1.0
1001
ACAD
1000
MTEXTBEGIN
1070
    73
1070
     1
1070
    44
1040
1.0
1070
    74
1070
     0
1000
MTEXTEND
  0
POINT
  5
7659
330
75D7
100
AcDbEntity
  8
DEFPOINTS
 62
     0
100
AcDbPoint
 10
1145.136117880786
 20
139.3181178697313
 30
0.0
  0
POINT
  5
765A
330
75D7
100
AcDbEntity
  8
DEFPOINTS
 62
     0
100
AcDbPoint
 10
1145.136117880786
 20
157.3180818697482
 30
0.0
  0
POINT
  5
765B
330
75D7
100
AcDbEntity
  8
DEFPOINTS
 62
     0
100
AcDbPoint
 10
1140.382617215655
 20
157.3180818697482
 30
0.0
  0
ENDBLK
  5
75D9
330
75D7
100
AcDbEntity
  8
0
100
AcDbBlockEnd
  0
BLOCK
  5
75E5
330
75E4
100
AcDbEntity
  8
0
100
AcDbBlockBegin
  2
*D54
 70
     1
 10
0.0
 20
0.0
 30
0.0
  3
*D54
  1

  0
LINE
  5
765C
330
75E4
100
AcDbEntity
  8
标注
  6
Continuous
370
    -2
100
AcDbLine
 10
1174.122360880773
 20
140.3181158697451
 30
0.0
 11
1177.147497818877
 21
140.3181158697451
 31
0.0
  0
LINE
  5
765D
330
75E4
100
AcDbEntity
  8
标注
  6
Continuous
370
    -2
100
AcDbLine
 10
1174.122360880773
 20
158.3180798697469
 30
0.0
 11
1177.147497818877
 21
158.3180798697469
 31
0.0
  0
LINE
  5
765E
330
75E4
100
AcDbEntity
  8
标注
  6
Continuous
370
    -2
100
AcDbLine
 10
1176.827497818877
 20
140.9681158697451
 30
0.0
 11
1176.827497818877
 21
148.4226340225428
 31
0.0
  0
LINE
  5
765F
330
75E4
100
AcDbEntity
  8
标注
  6
Continuous
370
    -2
100
AcDbLine
 10
1176.827497818877
 20
157.668079869747
 30
0.0
 11
1176.827497818877
 21
150.2135617169493
 31
0.0
  0
SOLID
  5
7660
330
75E4
100
AcDbEntity
  8
标注
100
AcDbTrace
 10
1176.719164485544
 20
140.9681158697451
 30
0.0
 11
1176.935831152211
 21
140.9681158697451
 31
0.0
 12
1176.827497818877
 22
140.3181158697451
 32
0.0
 13
1176.827497818877
 23
140.3181158697451
 33
0.0
  0
SOLID
  5
7661
330
75E4
100
AcDbEntity
  8
标注
100
AcDbTrace
 10
1176.719164485544
 20
157.668079869747
 30
0.0
 11
1176.935831152211
 21
157.668079869747
 31
0.0
 12
1176.827497818877
 22
158.3180798697469
 32
0.0
 13
1176.827497818877
 23
158.3180798697469
 33
0.0
  0
MTEXT
  5
7662
330
75E4
100
AcDbEntity
  8
标注
100
AcDbMText
 10
1176.827497818877
 20
149.3180978697462
 30
0.0
 40
0.65
 41
0.0
 71
     5
 72
     1
  1
\A1;18"
 11
0.0000000000000001
 21
1.0
 31
0.0
 73
     1
 44
1.0
1001
ACAD
1000
MTEXTBEGIN
1070
    73
1070
     1
1070
    44
1040
1.0
1070
    74
1070
     0
1000
MTEXTEND
  0
POINT
  5
7663
330
75E4
100
AcDbEntity
  8
DEFPOINTS
 62
     0
100
AcDbPoint
 10
1173.242360880773
 20
140.3181158697451
 30
0.0
  0
POINT
  5
7664
330
75E4
100
AcDbEntity
  8
DEFPOINTS
 62
     0
100
AcDbPoint
 10
1173.242360880773
 20
158.3180798697469
 30
0.0
  0
POINT
  5
7665
330
75E4
100
AcDbEntity
  8
DEFPOINTS
 62
     0
100
AcDbPoint
 10
1176.827497818877
 20
158.3180798697469
 30
0.0
  0
ENDBLK
  5
75E6
330
75E4
100
AcDbEntity
  8
0
100
AcDbBlockEnd
  0
BLOCK
  5
75F2
330
75F1
100
AcDbEntity
  8
0
100
AcDbBlockBegin
  2
*D55
 70
     1
 10
0.0
 20
0.0
 30
0.0
  3
*D55
  1

  0
LINE
  5
7666
330
75F1
100
AcDbEntity
  8
标注
  6
Continuous
370
    -2
100
AcDbLine
 10
1174.516060880773
 20
139.3181178697313
 30
0.0
 11
1178.735343269645
 21
139.3181178697313
 31
0.0
  0
LINE
  5
7667
330
75F1
100
AcDbEntity
  8
标注
  6
Continuous
370
    -2
100
AcDbLine
 10
1174.516060880773
 20
159.3180778697468
 30
0.0
 11
1178.735343269645
 21
159.3180778697468
 31
0.0
  0
LINE
  5
7668
330
75F1
100
AcDbEntity
  8
标注
  6
Continuous
370
    -2
100
AcDbLine
 10
1178.415343269645
 20
139.9681178697313
 30
0.0
 11
1178.415343269645
 21
148.386498279016
 31
0.0
  0
LINE
  5
7669
330
75F1
100
AcDbEntity
  8
标注
  6
Continuous
370
    -2
100
AcDbLine
 10
1178.415343269645
 20
158.6680778697468
 30
0.0
 11
1178.415343269645
 21
150.2496974604621
 31
0.0
  0
SOLID
  5
766A
330
75F1
100
AcDbEntity
  8
标注
100
AcDbTrace
 10
1178.307009936312
 20
139.9681178697313
 30
0.0
 11
1178.523676602978
 21
139.9681178697313
 31
0.0
 12
1178.415343269645
 22
139.3181178697313
 32
0.0
 13
1178.415343269645
 23
139.3181178697313
 33
0.0
  0
SOLID
  5
766B
330
75F1
100
AcDbEntity
  8
标注
100
AcDbTrace
 10
1178.307009936312
 20
158.6680778697468
 30
0.0
 11
1178.523676602978
 21
158.6680778697468
 31
0.0
 12
1178.415343269645
 22
159.3180778697468
 32
0.0
 13
1178.415343269645
 23
159.3180778697468
 33
0.0
  0
MTEXT
  5
766C
330
75F1
100
AcDbEntity
  8
标注
100
AcDbMText
 10
1178.415343269645
 20
149.3180978697392
 30
0.0
 40
0.65
 41
0.0
 71
     5
 72
     1
  1
\A1;20"
 11
0.0000000000000001
 21
1.0
 31
0.0
 73
     1
 44
1.0
1001
ACAD
1000
MTEXTBEGIN
1070
    73
1070
     1
1070
    44
1040
1.0
1070
    74
1070
     0
1000
MTEXTEND
  0
POINT
  5
766D
330
75F1
100
AcDbEntity
  8
DEFPOINTS
 62
     0
100
AcDbPoint
 10
1173.636060880773
 20
139.3181178697313
 30
0.0
  0
POINT
  5
766E
330
75F1
100
AcDbEntity
  8
DEFPOINTS
 62
     0
100
AcDbPoint
 10
1173.636060880773
 20
159.3180778697468
 30
0.0
  0
POINT
  5
766F
330
75F1
100
AcDbEntity
  8
DEFPOINTS
 62
     0
100
AcDbPoint
 10
1178.415343269645
 20
159.3180778697468
 30
0.0
  0
ENDBLK
  5
75F3
330
75F1
100
AcDbEntity
  8
0
100
AcDbBlockEnd
  0
BLOCK
  5
75FF
330
75FE
100
AcDbEntity
  8
0
100
AcDbBlockBegin
  2
*D56
 70
     1
 10
0.0
 20
0.0
 30
0.0
  3
*D56
  1

  0
LINE
  5
7670
330
75FE
100
AcDbEntity
  8
标注
  6
Continuous
370
    -2
100
AcDbLine
 10
1143.256119880772
 20
182.553668824868
 30
0.0
 11
1142.191767319847
 21
182.553668824868
 31
0.0
  0
LINE
  5
7671
330
75FE
100
AcDbEntity
  8
标注
  6
Continuous
370
    -2
100
AcDbLine
 10
1144.059109073814
 20
174.4949172258675
 30
0.0
 11
1142.191767319847
 21
174.4949172258675
 31
0.0
  0
LINE
  5
7672
330
75FE
100
AcDbEntity
  8
标注
  6
Continuous
370
    -2
100
AcDbLine
 10
1142.511767319847
 20
181.903668824868
 30
0.0
 11
1142.511767319847
 21
179.1982868862137
 31
0.0
  0
LINE
  5
7673
330
75FE
100
AcDbEntity
  8
标注
  6
Continuous
370
    -2
100
AcDbLine
 10
1142.511767319847
 20
175.1449172258675
 30
0.0
 11
1142.511767319847
 21
177.850299164522
 31
0.0
  0
SOLID
  5
7674
330
75FE
100
AcDbEntity
  8
标注
100
AcDbTrace
 10
1142.403433986513
 20
181.903668824868
 30
0.0
 11
1142.62010065318
 21
181.903668824868
 31
0.0
 12
1142.511767319847
 22
182.553668824868
 32
0.0
 13
1142.511767319847
 23
182.553668824868
 33
0.0
  0
SOLID
  5
7675
330
75FE
100
AcDbEntity
  8
标注
100
AcDbTrace
 10
1142.403433986513
 20
175.1449172258675
 30
0.0
 11
1142.62010065318
 21
175.1449172258675
 31
0.0
 12
1142.511767319847
 22
174.4949172258675
 32
0.0
 13
1142.511767319847
 23
174.4949172258675
 33
0.0
  0
MTEXT
  5
7676
330
75FE
100
AcDbEntity
  8
标注
100
AcDbMText
 10
1142.511767319847
 20
178.524293025368
 30
0.0
 40
0.65
 41
0.0
 71
     5
 72
     1
  1
\A1;8"
 11
0.0000000000000001
 21
1.0
 31
0.0
 73
     1
 44
1.0
1001
ACAD
1000
MTEXTBEGIN
1070
    73
1070
     1
1070
    44
1040
1.0
1070
    74
1070
     0
1000
MTEXTEND
  0
POINT
  5
7677
330
75FE
100
AcDbEntity
  8
DEFPOINTS
 62
     0
100
AcDbPoint
 10
1144.136119880772
 20
182.553668824868
 30
0.0
  0
POINT
  5
7678
330
75FE
100
AcDbEntity
  8
DEFPOINTS
 62
     0
100
AcDbPoint
 10
1144.939109073814
 20
174.4949172258675
 30
0.0
  0
POINT
  5
7679
330
75FE
100
AcDbEntity
  8
DEFPOINTS
 62
     0
100
AcDbPoint
 10
1142.511767319847
 20
174.4949172258675
 30
0.0
  0
ENDBLK
  5
7600
330
75FE
100
AcDbEntity
  8
0
100
AcDbBlockEnd
  0
BLOCK
  5
760C
330
760B
100
AcDbEntity
  8
0
100
AcDbBlockBegin
  2
*D57
 70
     1
 10
0.0
 20
0.0
 30
0.0
  3
*D57
  1

  0
LINE
  5
767A
330
760B
100
AcDbEntity
  8
标注
  6
Continuous
370
    -2
100
AcDbLine
 10
1175.516058880773
 20
182.553668824868
 30
0.0
 11
1177.147222922574
 21
182.553668824868
 31
0.0
  0
LINE
  5
767B
330
760B
100
AcDbEntity
  8
标注
  6
Continuous
370
    -2
100
AcDbLine
 10
1175.307465955291
 20
172.4949212258793
 30
0.0
 11
1177.147222922574
 21
172.4949212258793
 31
0.0
  0
LINE
  5
767C
330
760B
100
AcDbEntity
  8
标注
  6
Continuous
370
    -2
100
AcDbLine
 10
1176.827222922574
 20
181.903668824868
 30
0.0
 11
1176.827222922574
 21
178.4197588725769
 31
0.0
  0
LINE
  5
767D
330
760B
100
AcDbEntity
  8
标注
  6
Continuous
370
    -2
100
AcDbLine
 10
1176.827222922574
 20
173.1449212258793
 30
0.0
 11
1176.827222922574
 21
176.6288311781704
 31
0.0
  0
SOLID
  5
767E
330
760B
100
AcDbEntity
  8
标注
100
AcDbTrace
 10
1176.718889589241
 20
181.903668824868
 30
0.0
 11
1176.935556255908
 21
181.903668824868
 31
0.0
 12
1176.827222922574
 22
182.553668824868
 32
0.0
 13
1176.827222922574
 23
182.553668824868
 33
0.0
  0
SOLID
  5
767F
330
760B
100
AcDbEntity
  8
标注
100
AcDbTrace
 10
1176.718889589241
 20
173.1449212258793
 30
0.0
 11
1176.935556255908
 21
173.1449212258793
 31
0.0
 12
1176.827222922574
 22
172.4949212258793
 32
0.0
 13
1176.827222922574
 23
172.4949212258793
 33
0.0
  0
MTEXT
  5
7680
330
760B
100
AcDbEntity
  8
标注
100
AcDbMText
 10
1176.827222922574
 20
177.5242950253739
 30
0.0
 40
0.65
 41
0.0
 71
     5
 72
     1
  1
\A1;10"
 11
0.0000000000000001
 21
1.0
 31
0.0
 73
     1
 44
1.0
1001
ACAD
1000
MTEXTBEGIN
1070
    73
1070
     1
1070
    44
1040
1.0
1070
    74
1070
     0
1000
MTEXTEND
  0
POINT
  5
7681
330
760B
100
AcDbEntity
  8
DEFPOINTS
 62
     0
100
AcDbPoint
 10
1174.636058880773
 20
182.553668824868
 30
0.0
  0
POINT
  5
7682
330
760B
100
AcDbEntity
  8
DEFPOINTS
 62
     0
100
AcDbPoint
 10
1174.42746595529
 20
172.4949212258793
 30
0.0
  0
POINT
  5
7683
330
760B
100
AcDbEntity
  8
DEFPOINTS
 62
     0
100
AcDbPoint
 10
1176.827222922574
 20
172.4949212258793
 30
0.0
  0
ENDBLK
  5
760D
330
760B
100
AcDbEntity
  8
0
100
AcDbBlockEnd
  0
BLOCK
  5
7619
330
7618
100
AcDbEntity
  8
0
100
AcDbBlockBegin
  2
*D58
 70
     1
 10
0.0
 20
0.0
 30
0.0
  3
*D58
  1

  0
LINE
  5
7684
330
7618
100
AcDbEntity
  8
标注
  6
Continuous
370
    -2
100
AcDbLine
 10
1173.882256107374
 20
158.748906272583
 30
0.0
 11
1174.280772824142
 21
159.2624083918158
 31
0.0
  0
MTEXT
  5
7685
330
7618
100
AcDbEntity
  8
标注
100
AcDbMText
 10
1172.226441040876
 20
157.3364955598513
 30
0.0
 40
0.65
 41
0.0
 71
     5
 72
     1
  1
\A1;R3/8"
 11
0.6131026411811633
 21
0.7900032603582608
 31
0.0
 73
     1
 44
1.0
1001
ACAD
1000
MTEXTBEGIN
1070
    73
1070
     1
1070
    44
1040
1.0
1070
    74
1070
     0
1000
MTEXTEND
  0
LINE
  5
7686
330
7618
100
AcDbEntity
  8
标注
  6
Continuous
370
    -2
100
AcDbLine
 10
1173.242360880773
 20
157.9243798697469
 30
0.0
 11
1173.483739390607
 21
158.2354041533501
 31
0.0
  0
SOLID
  5
7687
330
7618
100
AcDbEntity
  8
标注
100
AcDbTrace
 10
1173.796672420835
 20
158.8153257253776
 30
0.0
 11
1173.967839793913
 21
158.6824868197883
 31
0.0
 12
1173.483739390607
 22
158.2354041533501
 32
0.0
 13
1173.483739390607
 23
158.2354041533501
 33
0.0
  0
ARC
  5
7688
330
7618
100
AcDbEntity
  8
标注
  6
Continuous
370
    -2
100
AcDbCircle
 10
1173.242360880773
 20
157.9243798697469
 30
0.0
 40
0.3937000000001944
100
AcDbArc
 50
5.615713452103228
 51
90.00000000000005
  0
POINT
  5
7689
330
7618
100
AcDbEntity
  8
DEFPOINTS
 62
     0
100
AcDbPoint
 10
1173.483739390607
 20
158.2354041533501
 30
0.0
  0
POINT
  5
768A
330
7618
100
AcDbEntity
  8
DEFPOINTS
 62
     0
100
AcDbPoint
 10
1173.242360880773
 20
157.9243798697469
 30
0.0
  0
ENDBLK
  5
761A
330
7618
100
AcDbEntity
  8
0
100
AcDbBlockEnd
  0
BLOCK
  5
7622
330
7621
100
AcDbEntity
  8
0
100
AcDbBlockBegin
  2
*D59
 70
     1
 10
0.0
 20
0.0
 30
0.0
  3
*D59
  1

  0
LINE
  5
768B
330
7621
100
AcDbEntity
  8
标注
  6
Continuous
370
    -2
100
AcDbLine
 10
1174.084180695764
 20
172.4005196330042
 30
0.0
 11
1174.608452881012
 21
172.0162818475444
 31
0.0
  0
MTEXT
  5
768C
330
7621
100
AcDbEntity
  8
标注
100
AcDbMText
 10
1172.621071600109
 20
173.9282861743123
 30
0.0
 40
0.65
 41
0.0
 71
     5
 72
     1
  1
\A1;R3/8"
 11
0.8065725926895872
 21
-0.5911350545535236
 31
0.0
 73
     1
 44
1.0
1001
ACAD
1000
MTEXTBEGIN
1070
    73
1070
     1
1070
    44
1040
1.0
1070
    74
1070
     0
1000
MTEXTEND
  0
LINE
  5
768D
330
7621
100
AcDbEntity
  8
标注
  6
Continuous
370
    -2
100
AcDbLine
 10
1173.242360880773
 20
173.0174872894417
 30
0.0
 11
1173.559908510515
 21
172.784757418464
 31
0.0
  0
SOLID
  5
768E
330
7621
100
AcDbEntity
  8
标注
100
AcDbTrace
 10
1174.148220326673
 20
172.4878983305456
 30
0.0
 11
1174.020141064854
 21
172.3131409354628
 31
0.0
 12
1173.559908510515
 22
172.784757418464
 32
0.0
 13
1173.559908510515
 23
172.784757418464
 33
0.0
  0
ARC
  5
768F
330
7621
100
AcDbEntity
  8
标注
  6
Continuous
370
    -2
100
AcDbCircle
 10
1173.242360880773
 20
173.0174872894417
 30
0.0
 40
0.3937000000000807
100
AcDbArc
 50
268.265603474686
 51
10.33250617759925
  0
POINT
  5
7690
330
7621
100
AcDbEntity
  8
DEFPOINTS
 62
     0
100
AcDbPoint
 10
1173.559908510515
 20
172.784757418464
 30
0.0
  0
POINT
  5
7691
330
7621
100
AcDbEntity
  8
DEFPOINTS
 62
     0
100
AcDbPoint
 10
1173.242360880773
 20
173.0174872894417
 30
0.0
  0
ENDBLK
  5
7623
330
7621
100
AcDbEntity
  8
0
100
AcDbBlockEnd
  0
BLOCK
  5
769A
330
7699
100
AcDbEntity
  8
0
100
AcDbBlockBegin
  2
*D60
 70
     1
 10
0.0
 20
0.0
 30
0.0
  3
*D60
  1

  0
LINE
  5
76DF
330
7699
100
AcDbEntity
  8
标注
  6
Continuous
370
    -2
100
AcDbLine
 10
1172.76186506921
 20
104.6856341446124
 30
0.0
 11
1172.76186506921
 21
102.3917688782459
 31
0.0
  0
LINE
  5
76E0
330
7699
100
AcDbEntity
  8
标注
  6
Continuous
370
    -2
100
AcDbLine
 10
1144.104442069213
 20
104.6856341446124
 30
0.0
 11
1144.104442069213
 21
102.3917688782459
 31
0.0
  0
LINE
  5
76E1
330
7699
100
AcDbEntity
  8
标注
  6
Continuous
370
    -2
100
AcDbLine
 10
1172.11186506921
 20
102.7117688782459
 30
0.0
 11
1160.122051932104
 21
102.7117688782459
 31
0.0
  0
LINE
  5
76E2
330
7699
100
AcDbEntity
  8
标注
  6
Continuous
370
    -2
100
AcDbLine
 10
1144.754442069213
 20
102.7117688782459
 30
0.0
 11
1156.74425520632
 21
102.7117688782459
 31
0.0
  0
SOLID
  5
76E3
330
7699
100
AcDbEntity
  8
标注
100
AcDbTrace
 10
1172.11186506921
 20
102.8201022115793
 30
0.0
 11
1172.11186506921
 21
102.6034355449126
 31
0.0
 12
1172.76186506921
 22
102.7117688782459
 32
0.0
 13
1172.76186506921
 23
102.7117688782459
 33
0.0
  0
SOLID
  5
76E4
330
7699
100
AcDbEntity
  8
标注
100
AcDbTrace
 10
1144.754442069213
 20
102.8201022115793
 30
0.0
 11
1144.754442069213
 21
102.6034355449126
 31
0.0
 12
1144.104442069213
 22
102.7117688782459
 32
0.0
 13
1144.104442069213
 23
102.7117688782459
 33
0.0
  0
MTEXT
  5
76E5
330
7699
100
AcDbEntity
  8
标注
100
AcDbMText
 10
1158.433153569212
 20
102.7117688782459
 30
0.0
 40
0.65
 41
0.0
 71
     5
 72
     1
  1
\A1;28 5/8"
 73
     1
 44
1.0
1001
ACAD
1000
MTEXTBEGIN
1070
    73
1070
     1
1070
    44
1040
1.0
1070
    74
1070
     0
1000
MTEXTEND
  0
POINT
  5
76E6
330
7699
100
AcDbEntity
  8
DEFPOINTS
 62
     0
100
AcDbPoint
 10
1172.76186506921
 20
105.5656341446124
 30
0.0
  0
POINT
  5
76E7
330
7699
100
AcDbEntity
  8
DEFPOINTS
 62
     0
100
AcDbPoint
 10
1144.104442069213
 20
105.5656341446124
 30
0.0
  0
POINT
  5
76E8
330
7699
100
AcDbEntity
  8
DEFPOINTS
 62
     0
100
AcDbPoint
 10
1144.104442069213
 20
102.7117688782459
 30
0.0
  0
ENDBLK
  5
769B
330
7699
100
AcDbEntity
  8
0
100
AcDbBlockEnd
  0
BLOCK
  5
76A7
330
76A6
100
AcDbEntity
  8
0
100
AcDbBlockBegin
  2
*D61
 70
     1
 10
0.0
 20
0.0
 30
0.0
  3
*D61
  1

  0
LINE
  5
76E9
330
76A6
100
AcDbEntity
  8
标注
  6
Continuous
370
    -2
100
AcDbLine
 10
1143.696882069197
 20
105.0931941446001
 30
0.0
 11
1141.680527863592
 21
105.0931941446001
 31
0.0
  0
LINE
  5
76EA
330
76A6
100
AcDbEntity
  8
标注
  6
Continuous
370
    -2
100
AcDbLine
 10
1143.696882069212
 20
121.2506421446128
 30
0.0
 11
1141.680527863592
 21
121.2506421446128
 31
0.0
  0
LINE
  5
76EB
330
76A6
100
AcDbEntity
  8
标注
  6
Continuous
370
    -2
100
AcDbLine
 10
1142.000527863592
 20
105.7431941446001
 30
0.0
 11
1142.000527863592
 21
111.519155525234
 31
0.0
  0
LINE
  5
76EC
330
76A6
100
AcDbEntity
  8
标注
  6
Continuous
370
    -2
100
AcDbLine
 10
1142.000527863592
 20
120.6006421446128
 30
0.0
 11
1142.000527863592
 21
114.8246807639789
 31
0.0
  0
SOLID
  5
76ED
330
76A6
100
AcDbEntity
  8
标注
100
AcDbTrace
 10
1141.892194530259
 20
105.7431941446001
 30
0.0
 11
1142.108861196925
 21
105.7431941446001
 31
0.0
 12
1142.000527863592
 22
105.0931941446001
 32
0.0
 13
1142.000527863592
 23
105.0931941446001
 33
0.0
  0
SOLID
  5
76EE
330
76A6
100
AcDbEntity
  8
标注
100
AcDbTrace
 10
1141.892194530259
 20
120.6006421446128
 30
0.0
 11
1142.108861196925
 21
120.6006421446128
 31
0.0
 12
1142.000527863592
 22
121.2506421446128
 32
0.0
 13
1142.000527863592
 23
121.2506421446128
 33
0.0
  0
MTEXT
  5
76EF
330
76A6
100
AcDbEntity
  8
标注
100
AcDbMText
 10
1142.000527863592
 20
113.1719181446066
 30
0.0
 40
0.65
 41
0.0
 71
     5
 72
     1
  1
\A1;16 1/8"
 11
0.0000000000000001
 21
1.0
 31
0.0
 73
     1
 44
1.0
1001
ACAD
1000
MTEXTBEGIN
1070
    73
1070
     1
1070
    44
1040
1.0
1070
    74
1070
     0
1000
MTEXTEND
  0
POINT
  5
76F0
330
76A6
100
AcDbEntity
  8
DEFPOINTS
 62
     0
100
AcDbPoint
 10
1144.576882069197
 20
105.0931941446001
 30
0.0
  0
POINT
  5
76F1
330
76A6
100
AcDbEntity
  8
DEFPOINTS
 62
     0
100
AcDbPoint
 10
1144.576882069212
 20
121.2506421446128
 30
0.0
  0
POINT
  5
76F2
330
76A6
100
AcDbEntity
  8
DEFPOINTS
 62
     0
100
AcDbPoint
 10
1142.000527863592
 20
121.2506421446128
 30
0.0
  0
ENDBLK
  5
76A8
330
76A6
100
AcDbEntity
  8
0
100
AcDbBlockEnd
  0
BLOCK
  5
76B4
330
76B3
100
AcDbEntity
  8
0
100
AcDbBlockBegin
  2
*D62
 70
     1
 10
0.0
 20
0.0
 30
0.0
  3
*D62
  1

  0
LINE
  5
76F3
330
76B3
100
AcDbEntity
  8
标注
  6
Continuous
370
    -2
100
AcDbLine
 10
1173.169425069198
 20
105.0931941446001
 30
0.0
 11
1175.928210070324
 21
105.0931941446001
 31
0.0
  0
LINE
  5
76F4
330
76B3
100
AcDbEntity
  8
标注
  6
Continuous
370
    -2
100
AcDbLine
 10
1173.169425069198
 20
123.2506381446114
 30
0.0
 11
1175.928210070324
 21
123.2506381446114
 31
0.0
  0
LINE
  5
76F5
330
76B3
100
AcDbEntity
  8
标注
  6
Continuous
370
    -2
100
AcDbLine
 10
1175.608210070324
 20
105.7431941446001
 30
0.0
 11
1175.608210070324
 21
112.5191535252333
 31
0.0
  0
LINE
  5
76F6
330
76B3
100
AcDbEntity
  8
标注
  6
Continuous
370
    -2
100
AcDbLine
 10
1175.608210070324
 20
122.6006381446114
 30
0.0
 11
1175.608210070324
 21
115.8246787639782
 31
0.0
  0
SOLID
  5
76F7
330
76B3
100
AcDbEntity
  8
标注
100
AcDbTrace
 10
1175.499876736991
 20
105.7431941446001
 30
0.0
 11
1175.716543403657
 21
105.7431941446001
 31
0.0
 12
1175.608210070324
 22
105.0931941446001
 32
0.0
 13
1175.608210070324
 23
105.0931941446001
 33
0.0
  0
SOLID
  5
76F8
330
76B3
100
AcDbEntity
  8
标注
100
AcDbTrace
 10
1175.499876736991
 20
122.6006381446114
 30
0.0
 11
1175.716543403657
 21
122.6006381446114
 31
0.0
 12
1175.608210070324
 22
123.2506381446114
 32
0.0
 13
1175.608210070324
 23
123.2506381446114
 33
0.0
  0
MTEXT
  5
76F9
330
76B3
100
AcDbEntity
  8
标注
100
AcDbMText
 10
1175.608210070324
 20
114.171916144606
 30
0.0
 40
0.65
 41
0.0
 71
     5
 72
     1
  1
\A1;18 1/8"
 11
0.0000000000000001
 21
1.0
 31
0.0
 73
     1
 44
1.0
1001
ACAD
1000
MTEXTBEGIN
1070
    73
1070
     1
1070
    44
1040
1.0
1070
    74
1070
     0
1000
MTEXTEND
  0
POINT
  5
76FA
330
76B3
100
AcDbEntity
  8
DEFPOINTS
 62
     0
100
AcDbPoint
 10
1172.289425069198
 20
105.0931941446001
 30
0.0
  0
POINT
  5
76FB
330
76B3
100
AcDbEntity
  8
DEFPOINTS
 62
     0
100
AcDbPoint
 10
1172.289425069198
 20
123.2506381446114
 30
0.0
  0
POINT
  5
76FC
330
76B3
100
AcDbEntity
  8
DEFPOINTS
 62
     0
100
AcDbPoint
 10
1175.608210070324
 20
123.2506381446114
 30
0.0
  0
ENDBLK
  5
76B5
330
76B3
100
AcDbEntity
  8
0
100
AcDbBlockEnd
  0
BLOCK
  5
76C1
330
76C0
100
AcDbEntity
  8
0
100
AcDbBlockBegin
  2
*D63
 70
     1
 10
0.0
 20
0.0
 30
0.0
  3
*D63
  1

  0
LINE
  5
76FD
330
76C0
100
AcDbEntity
  8
标注
  6
Continuous
370
    -2
100
AcDbLine
 10
1172.76186506921
 20
123.6581981445991
 30
0.0
 11
1172.76186506921
 21
125.6263981111345
 31
0.0
  0
LINE
  5
76FE
330
76C0
100
AcDbEntity
  8
标注
  6
Continuous
370
    -2
100
AcDbLine
 10
1158.604413069197
 20
123.6581981445991
 30
0.0
 11
1158.604413069197
 21
125.6263981111345
 31
0.0
  0
LINE
  5
76FF
330
76C0
100
AcDbEntity
  8
标注
  6
Continuous
370
    -2
100
AcDbLine
 10
1172.11186506921
 20
125.3063981111345
 30
0.0
 11
1167.335901688576
 21
125.3063981111345
 31
0.0
  0
LINE
  5
7700
330
76C0
100
AcDbEntity
  8
标注
  6
Continuous
370
    -2
100
AcDbLine
 10
1159.254413069197
 20
125.3063981111345
 30
0.0
 11
1164.030376449831
 21
125.3063981111345
 31
0.0
  0
SOLID
  5
7701
330
76C0
100
AcDbEntity
  8
标注
100
AcDbTrace
 10
1172.11186506921
 20
125.4147314444678
 30
0.0
 11
1172.11186506921
 21
125.1980647778011
 31
0.0
 12
1172.76186506921
 22
125.3063981111345
 32
0.0
 13
1172.76186506921
 23
125.3063981111345
 33
0.0
  0
SOLID
  5
7702
330
76C0
100
AcDbEntity
  8
标注
100
AcDbTrace
 10
1159.254413069197
 20
125.4147314444678
 30
0.0
 11
1159.254413069197
 21
125.1980647778011
 31
0.0
 12
1158.604413069197
 22
125.3063981111345
 32
0.0
 13
1158.604413069197
 23
125.3063981111345
 33
0.0
  0
MTEXT
  5
7703
330
76C0
100
AcDbEntity
  8
标注
100
AcDbMText
 10
1165.683139069203
 20
125.3063981111345
 30
0.0
 40
0.65
 41
0.0
 71
     5
 72
     1
  1
\A1;14 1/8"
 73
     1
 44
1.0
1001
ACAD
1000
MTEXTBEGIN
1070
    73
1070
     1
1070
    44
1040
1.0
1070
    74
1070
     0
1000
MTEXTEND
  0
POINT
  5
7704
330
76C0
100
AcDbEntity
  8
DEFPOINTS
 62
     0
100
AcDbPoint
 10
1172.76186506921
 20
122.7781981445992
 30
0.0
  0
POINT
  5
7705
330
76C0
100
AcDbEntity
  8
DEFPOINTS
 62
     0
100
AcDbPoint
 10
1158.604413069197
 20
122.7781981445992
 30
0.0
  0
POINT
  5
7706
330
76C0
100
AcDbEntity
  8
DEFPOINTS
 62
     0
100
AcDbPoint
 10
1158.604413069197
 20
125.3063981111345
 30
0.0
  0
ENDBLK
  5
76C2
330
76C0
100
AcDbEntity
  8
0
100
AcDbBlockEnd
  0
BLOCK
  5
76CE
330
76CD
100
AcDbEntity
  8
0
100
AcDbBlockBegin
  2
*D64
 70
     1
 10
0.0
 20
0.0
 30
0.0
  3
*D64
  1

  0
LINE
  5
7707
330
76CD
100
AcDbEntity
  8
标注
  6
Continuous
370
    -2
100
AcDbLine
 10
1173.218370920351
 20
104.9356094155316
 30
0.0
 11
1173.756319321373
 21
104.5707649036663
 31
0.0
  0
MTEXT
  5
7708
330
76CD
100
AcDbEntity
  8
标注
100
AcDbMText
 10
1171.566710002953
 20
106.6012742698749
 30
0.0
 40
0.65
 41
0.0
 71
     5
 72
     1
  1
\A1;5-R1/2"
 11
0.827612924648762
 21
-0.56129924902348
 31
0.0
 73
     1
 44
1.0
1001
ACAD
1000
MTEXTBEGIN
1070
    73
1070
     1
1070
    44
1040
1.0
1070
    74
1070
     0
1000
MTEXTEND
  0
LINE
  5
7709
330
76CD
100
AcDbEntity
  8
标注
  6
Continuous
370
    -2
100
AcDbLine
 10
1172.289425069198
 20
105.5656341446124
 30
0.0
 11
1172.68042251933
 21
105.3004539273968
 31
0.0
  0
SOLID
  5
770A
330
76CD
100
AcDbEntity
  8
标注
100
AcDbTrace
 10
1173.279178338995
 20
105.0252674823685
 30
0.0
 11
1173.157563501707
 21
104.8459513486946
 31
0.0
 12
1172.68042251933
 22
105.3004539273968
 32
0.0
 13
1172.68042251933
 23
105.3004539273968
 33
0.0
  0
ARC
  5
770B
330
76CD
100
AcDbEntity
  8
标注
  6
Continuous
370
    -2
100
AcDbCircle
 10
1172.289425069198
 20
105.5656341446124
 30
0.0
 40
0.4724400000122843
100
AcDbArc
 50
270.0
 51
4.662721768431028
  0
POINT
  5
770C
330
76CD
100
AcDbEntity
  8
DEFPOINTS
 62
     0
100
AcDbPoint
 10
1172.68042251933
 20
105.3004539273968
 30
0.0
  0
POINT
  5
770D
330
76CD
100
AcDbEntity
  8
DEFPOINTS
 62
     0
100
AcDbPoint
 10
1172.289425069198
 20
105.5656341446124
 30
0.0
  0
ENDBLK
  5
76CF
330
76CD
100
AcDbEntity
  8
0
100
AcDbBlockEnd
  0
BLOCK
  5
76D7
330
76D6
100
AcDbEntity
  8
0
100
AcDbBlockBegin
  2
*D65
 70
     1
 10
0.0
 20
0.0
 30
0.0
  3
*D65
  1

  0
LINE
  5
770E
330
76D6
100
AcDbEntity
  8
标注
  6
Continuous
370
    -2
100
AcDbLine
 10
1158.943019660706
 20
120.900677740433
 30
0.0
 11
1159.399088726988
 21
120.4375352064537
 31
0.0
  0
MTEXT
  5
770F
330
76D6
100
AcDbEntity
  8
标注
100
AcDbMText
 10
1159.859321591165
 20
120.9669595160036
 30
0.0
 40
0.65
 41
0.0
 71
     5
 72
     1
  1
\A1;R3/8"
 11
0.7016447173567031
 21
-0.712526975352816
 31
0.0
 73
     1
 44
1.0
1001
ACAD
1000
MTEXTBEGIN
1070
    73
1070
     1
1070
    44
1040
1.0
1070
    74
1070
     0
1000
MTEXTEND
  0
LINE
  5
7710
330
76D6
100
AcDbEntity
  8
标注
  6
Continuous
370
    -2
100
AcDbLine
 10
1158.21071306921
 20
121.6443421445987
 30
0.0
 11
1158.486950594424
 21
121.3638202744124
 31
0.0
  0
SOLID
  5
7711
330
76D6
100
AcDbEntity
  8
标注
100
AcDbTrace
 10
1159.020210083036
 20
120.97668925148
 30
0.0
 11
1158.865829238376
 21
120.824666229386
 31
0.0
 12
1158.486950594424
 22
121.3638202744124
 32
0.0
 13
1158.486950594424
 23
121.3638202744124
 33
0.0
  0
ARC
  5
7712
330
76D6
100
AcDbEntity
  8
标注
  6
Continuous
370
    -2
100
AcDbCircle
 10
1158.21071306921
 20
121.6443421445987
 30
0.0
 40
0.3936999999858699
100
AcDbArc
 50
270.0000000000001
 51
1.129212029688407
  0
POINT
  5
7713
330
76D6
100
AcDbEntity
  8
DEFPOINTS
 62
     0
100
AcDbPoint
 10
1158.486950594424
 20
121.3638202744124
 30
0.0
  0
POINT
  5
7714
330
76D6
100
AcDbEntity
  8
DEFPOINTS
 62
     0
100
AcDbPoint
 10
1158.21071306921
 20
121.6443421445987
 30
0.0
  0
ENDBLK
  5
76D8
330
76D6
100
AcDbEntity
  8
0
100
AcDbBlockEnd
  0
BLOCK
  5
773A
330
7739
100
AcDbEntity
  8
0
100
AcDbBlockBegin
  2
*D66
 70
     1
 10
0.0
 20
0.0
 30
0.0
  3
*D66
  1

  0
LINE
  5
773C
330
7739
100
AcDbEntity
  8
标注
  6
Continuous
370
    -2
100
AcDbLine
 10
1145.05925336177
 20
156.8559839574771
 30
0.0
 11
1144.766193155436
 21
157.4361698892812
 31
0.0
  0
MTEXT
  5
773D
330
7739
100
AcDbEntity
  8
标注
100
AcDbMText
 10
1145.892823733495
 20
154.5636925901775
 30
0.0
 40
0.65
 41
0.0
 71
     5
 72
     1
  1
\A1;R3/8"
 11
0.4508618558990336
 21
-0.8925937412368963
 31
0.0
 73
     1
 44
1.0
1001
ACAD
1000
MTEXTBEGIN
1070
    73
1070
     1
1070
    44
1040
1.0
1070
    74
1070
     0
1000
MTEXTEND
  0
LINE
  5
773E
330
7739
100
AcDbEntity
  8
标注
  6
Continuous
370
    -2
100
AcDbLine
 10
1145.529817880772
 20
155.9243838697483
 30
0.0
 11
1145.352313568104
 21
156.2757980256732
 31
0.0
  0
SOLID
  5
773F
330
7739
100
AcDbEntity
  8
标注
100
AcDbTrace
 10
1145.155951017071
 20
156.9048273251995
 30
0.0
 11
1144.962555706469
 21
156.8071405897548
 31
0.0
 12
1145.352313568104
 22
156.2757980256732
 32
0.0
 13
1145.352313568104
 23
156.2757980256732
 33
0.0
  0
POINT
  5
7740
330
7739
100
AcDbEntity
  8
DEFPOINTS
 62
     0
100
AcDbPoint
 10
1145.352313568104
 20
156.2757980256732
 30
0.0
  0
POINT
  5
7741
330
7739
100
AcDbEntity
  8
DEFPOINTS
 62
     0
100
AcDbPoint
 10
1145.529817880772
 20
155.9243838697483
 30
0.0
  0
ENDBLK
  5
773B
330
7739
100
AcDbEntity
  8
0
100
AcDbBlockEnd
  0
BLOCK
  5
7830
330
782F
100
AcDbEntity
  8
0
100
AcDbBlockBegin
  2
*D67
 70
     1
 10
0.0
 20
0.0
 30
0.0
  3
*D67
  1

  0
LINE
  5
7832
330
782F
100
AcDbEntity
  8
标注
  6
Continuous
370
    -2
100
AcDbLine
 10
1106.986636452876
 20
138.8297519150827
 30
0.0
 11
1106.986636452876
 21
136.2482412200543
 31
0.0
  0
LINE
  5
7833
330
782F
100
AcDbEntity
  8
标注
  6
Continuous
370
    -2
100
AcDbLine
 10
1121.986606452873
 20
138.8297519150827
 30
0.0
 11
1121.986606452873
 21
136.2482412200543
 31
0.0
  0
LINE
  5
7834
330
782F
100
AcDbEntity
  8
标注
  6
Continuous
370
    -2
100
AcDbLine
 10
1107.636636452876
 20
136.5682412200543
 30
0.0
 11
1113.591157605672
 21
136.5682412200543
 31
0.0
  0
LINE
  5
7835
330
782F
100
AcDbEntity
  8
标注
  6
Continuous
370
    -2
100
AcDbLine
 10
1121.336606452873
 20
136.5682412200543
 30
0.0
 11
1115.382085300078
 21
136.5682412200543
 31
0.0
  0
SOLID
  5
7836
330
782F
100
AcDbEntity
  8
标注
100
AcDbTrace
 10
1107.636636452876
 20
136.6765745533875
 30
0.0
 11
1107.636636452876
 21
136.459907886721
 31
0.0
 12
1106.986636452876
 22
136.5682412200543
 32
0.0
 13
1106.986636452876
 23
136.5682412200543
 33
0.0
  0
SOLID
  5
7837
330
782F
100
AcDbEntity
  8
标注
100
AcDbTrace
 10
1121.336606452873
 20
136.6765745533875
 30
0.0
 11
1121.336606452873
 21
136.459907886721
 31
0.0
 12
1121.986606452873
 22
136.5682412200543
 32
0.0
 13
1121.986606452873
 23
136.5682412200543
 33
0.0
  0
MTEXT
  5
7838
330
782F
100
AcDbEntity
  8
标注
100
AcDbMText
 10
1114.486621452875
 20
136.5682412200543
 30
0.0
 40
0.65
 41
0.0
 71
     5
 72
     1
  1
\A1;15"
 73
     1
 44
1.0
1001
ACAD
1000
MTEXTBEGIN
1070
    73
1070
     1
1070
    44
1040
1.0
1070
    74
1070
     0
1000
MTEXTEND
  0
POINT
  5
7839
330
782F
100
AcDbEntity
  8
DEFPOINTS
 62
     0
100
AcDbPoint
 10
1106.986636452876
 20
139.7097519150827
 30
0.0
  0
POINT
  5
783A
330
782F
100
AcDbEntity
  8
DEFPOINTS
 62
     0
100
AcDbPoint
 10
1121.986606452873
 20
139.7097519150827
 30
0.0
  0
POINT
  5
783B
330
782F
100
AcDbEntity
  8
DEFPOINTS
 62
     0
100
AcDbPoint
 10
1121.986606452873
 20
136.5682412200543
 30
0.0
  0
ENDBLK
  5
7831
330
782F
100
AcDbEntity
  8
0
100
AcDbBlockEnd
  0
BLOCK
  5
783E
330
783D
100
AcDbEntity
  8
0
100
AcDbBlockBegin
  2
*D68
 70
     1
 10
0.0
 20
0.0
 30
0.0
  3
*D68
  1

  0
LINE
  5
7840
330
783D
100
AcDbEntity
  8
标注
  6
Continuous
370
    -2
100
AcDbLine
 10
1105.986638452874
 20
138.2836280909858
 30
0.0
 11
1105.986638452874
 21
134.5891967194726
 31
0.0
  0
LINE
  5
7841
330
783D
100
AcDbEntity
  8
标注
  6
Continuous
370
    -2
100
AcDbLine
 10
1122.986604452876
 20
138.2836280909858
 30
0.0
 11
1122.986604452876
 21
134.5891967194726
 31
0.0
  0
LINE
  5
7842
330
783D
100
AcDbEntity
  8
标注
  6
Continuous
370
    -2
100
AcDbLine
 10
1106.636638452874
 20
134.9091967194725
 30
0.0
 11
1113.591157605672
 21
134.9091967194725
 31
0.0
  0
LINE
  5
7843
330
783D
100
AcDbEntity
  8
标注
  6
Continuous
370
    -2
100
AcDbLine
 10
1122.336604452875
 20
134.9091967194725
 30
0.0
 11
1115.382085300078
 21
134.9091967194725
 31
0.0
  0
SOLID
  5
7844
330
783D
100
AcDbEntity
  8
标注
100
AcDbTrace
 10
1106.636638452874
 20
135.0175300528059
 30
0.0
 11
1106.636638452874
 21
134.8008633861392
 31
0.0
 12
1105.986638452874
 22
134.9091967194725
 32
0.0
 13
1105.986638452874
 23
134.9091967194725
 33
0.0
  0
SOLID
  5
7845
330
783D
100
AcDbEntity
  8
标注
100
AcDbTrace
 10
1122.336604452875
 20
135.0175300528059
 30
0.0
 11
1122.336604452875
 21
134.8008633861392
 31
0.0
 12
1122.986604452876
 22
134.9091967194725
 32
0.0
 13
1122.986604452876
 23
134.9091967194725
 33
0.0
  0
MTEXT
  5
7846
330
783D
100
AcDbEntity
  8
标注
100
AcDbMText
 10
1114.486621452875
 20
134.9091967194725
 30
0.0
 40
0.65
 41
0.0
 71
     5
 72
     1
  1
\A1;17"
 73
     1
 44
1.0
1001
ACAD
1000
MTEXTBEGIN
1070
    73
1070
     1
1070
    44
1040
1.0
1070
    74
1070
     0
1000
MTEXTEND
  0
POINT
  5
7847
330
783D
100
AcDbEntity
  8
DEFPOINTS
 62
     0
100
AcDbPoint
 10
1105.986638452874
 20
139.1636280909859
 30
0.0
  0
POINT
  5
7848
330
783D
100
AcDbEntity
  8
DEFPOINTS
 62
     0
100
AcDbPoint
 10
1122.986604452876
 20
139.1636280909859
 30
0.0
  0
POINT
  5
7849
330
783D
100
AcDbEntity
  8
DEFPOINTS
 62
     0
100
AcDbPoint
 10
1122.986604452876
 20
134.9091967194725
 30
0.0
  0
ENDBLK
  5
783F
330
783D
100
AcDbEntity
  8
0
100
AcDbBlockEnd
  0
BLOCK
  5
784C
330
784B
100
AcDbEntity
  8
0
100
AcDbBlockBegin
  2
*D69
 70
     1
 10
0.0
 20
0.0
 30
0.0
  3
*D69
  1

  0
LINE
  5
784E
330
784B
100
AcDbEntity
  8
标注
  6
Continuous
370
    -2
100
AcDbLine
 10
1122.472906452873
 20
139.3160519150822
 30
0.0
 11
1125.438848814821
 21
139.3160519150822
 31
0.0
  0
LINE
  5
784F
330
784B
100
AcDbEntity
  8
标注
  6
Continuous
370
    -2
100
AcDbLine
 10
1122.472906452873
 20
155.3160199150859
 30
0.0
 11
1125.438848814821
 21
155.3160199150859
 31
0.0
  0
LINE
  5
7850
330
784B
100
AcDbEntity
  8
标注
  6
Continuous
370
    -2
100
AcDbLine
 10
1125.118848814821
 20
139.9660519150822
 30
0.0
 11
1125.118848814821
 21
146.4205720678808
 31
0.0
  0
LINE
  5
7851
330
784B
100
AcDbEntity
  8
标注
  6
Continuous
370
    -2
100
AcDbLine
 10
1125.118848814821
 20
154.6660199150859
 30
0.0
 11
1125.118848814821
 21
148.2114997622873
 31
0.0
  0
SOLID
  5
7852
330
784B
100
AcDbEntity
  8
标注
100
AcDbTrace
 10
1125.010515481487
 20
139.9660519150822
 30
0.0
 11
1125.227182148154
 21
139.9660519150822
 31
0.0
 12
1125.118848814821
 22
139.3160519150822
 32
0.0
 13
1125.118848814821
 23
139.3160519150822
 33
0.0
  0
SOLID
  5
7853
330
784B
100
AcDbEntity
  8
标注
100
AcDbTrace
 10
1125.010515481487
 20
154.6660199150859
 30
0.0
 11
1125.227182148154
 21
154.6660199150859
 31
0.0
 12
1125.118848814821
 22
155.3160199150859
 32
0.0
 13
1125.118848814821
 23
155.3160199150859
 33
0.0
  0
MTEXT
  5
7854
330
784B
100
AcDbEntity
  8
标注
100
AcDbMText
 10
1125.118848814821
 20
147.3160359150842
 30
0.0
 40
0.65
 41
0.0
 71
     5
 72
     1
  1
\A1;16"
 11
0.0000000000000001
 21
1.0
 31
0.0
 73
     1
 44
1.0
1001
ACAD
1000
MTEXTBEGIN
1070
    73
1070
     1
1070
    44
1040
1.0
1070
    74
1070
     0
1000
MTEXTEND
  0
POINT
  5
7855
330
784B
100
AcDbEntity
  8
DEFPOINTS
 62
     0
100
AcDbPoint
 10
1121.592906452873
 20
139.3160519150822
 30
0.0
  0
POINT
  5
7856
330
784B
100
AcDbEntity
  8
DEFPOINTS
 62
     0
100
AcDbPoint
 10
1121.592906452873
 20
155.3160199150859
 30
0.0
  0
POINT
  5
7857
330
784B
100
AcDbEntity
  8
DEFPOINTS
 62
     0
100
AcDbPoint
 10
1125.118848814821
 20
155.3160199150859
 30
0.0
  0
ENDBLK
  5
784D
330
784B
100
AcDbEntity
  8
0
100
AcDbBlockEnd
  0
BLOCK
  5
785A
330
7859
100
AcDbEntity
  8
0
100
AcDbBlockBegin
  2
*D70
 70
     1
 10
0.0
 20
0.0
 30
0.0
  3
*D70
  1

  0
LINE
  5
785C
330
7859
100
AcDbEntity
  8
标注
  6
Continuous
370
    -2
100
AcDbLine
 10
1122.866606452873
 20
138.3160539150829
 30
0.0
 11
1127.032751499889
 21
138.3160539150829
 31
0.0
  0
LINE
  5
785D
330
7859
100
AcDbEntity
  8
标注
  6
Continuous
370
    -2
100
AcDbLine
 10
1122.866606452873
 20
156.3160179150852
 30
0.0
 11
1127.032751499889
 21
156.3160179150852
 31
0.0
  0
LINE
  5
785E
330
7859
100
AcDbEntity
  8
标注
  6
Continuous
370
    -2
100
AcDbLine
 10
1126.71275149989
 20
138.9660539150828
 30
0.0
 11
1126.71275149989
 21
146.4205720678808
 31
0.0
  0
LINE
  5
785F
330
7859
100
AcDbEntity
  8
标注
  6
Continuous
370
    -2
100
AcDbLine
 10
1126.71275149989
 20
155.6660179150852
 30
0.0
 11
1126.71275149989
 21
148.2114997622873
 31
0.0
  0
SOLID
  5
7860
330
7859
100
AcDbEntity
  8
标注
100
AcDbTrace
 10
1126.604418166556
 20
138.9660539150828
 30
0.0
 11
1126.821084833223
 21
138.9660539150828
 31
0.0
 12
1126.71275149989
 22
138.3160539150829
 32
0.0
 13
1126.71275149989
 23
138.3160539150829
 33
0.0
  0
SOLID
  5
7861
330
7859
100
AcDbEntity
  8
标注
100
AcDbTrace
 10
1126.604418166556
 20
155.6660179150852
 30
0.0
 11
1126.821084833223
 21
155.6660179150852
 31
0.0
 12
1126.71275149989
 22
156.3160179150852
 32
0.0
 13
1126.71275149989
 23
156.3160179150852
 33
0.0
  0
MTEXT
  5
7862
330
7859
100
AcDbEntity
  8
标注
100
AcDbMText
 10
1126.71275149989
 20
147.3160359150842
 30
0.0
 40
0.65
 41
0.0
 71
     5
 72
     1
  1
\A1;18"
 11
0.0000000000000001
 21
1.0
 31
0.0
 73
     1
 44
1.0
1001
ACAD
1000
MTEXTBEGIN
1070
    73
1070
     1
1070
    44
1040
1.0
1070
    74
1070
     0
1000
MTEXTEND
  0
POINT
  5
7863
330
7859
100
AcDbEntity
  8
DEFPOINTS
 62
     0
100
AcDbPoint
 10
1121.986606452873
 20
138.3160539150829
 30
0.0
  0
POINT
  5
7864
330
7859
100
AcDbEntity
  8
DEFPOINTS
 62
     0
100
AcDbPoint
 10
1121.986606452873
 20
156.3160179150852
 30
0.0
  0
POINT
  5
7865
330
7859
100
AcDbEntity
  8
DEFPOINTS
 62
     0
100
AcDbPoint
 10
1126.71275149989
 20
156.3160179150852
 30
0.0
  0
ENDBLK
  5
785B
330
7859
100
AcDbEntity
  8
0
100
AcDbBlockEnd
  0
BLOCK
  5
7868
330
7867
100
AcDbEntity
  8
0
100
AcDbBlockBegin
  2
*D71
 70
     1
 10
0.0
 20
0.0
 30
0.0
  3
*D71
  1

  0
LINE
  5
7944
330
7867
100
AcDbEntity
  8
标注
  6
Continuous
370
    -2
100
AcDbLine
 10
1123.866604452873
 20
179.0630482163601
 30
0.0
 11
1125.204728092152
 21
179.0630482163601
 31
0.0
  0
LINE
  5
7945
330
7867
100
AcDbEntity
  8
标注
  6
Continuous
370
    -2
100
AcDbLine
 10
1123.428083086796
 20
170.0641714926519
 30
0.0
 11
1125.204728092152
 21
170.0641714926519
 31
0.0
  0
LINE
  5
7946
330
7867
100
AcDbEntity
  8
标注
  6
Continuous
370
    -2
100
AcDbLine
 10
1124.884728092152
 20
178.4130482163601
 30
0.0
 11
1124.884728092152
 21
175.2371603319957
 31
0.0
  0
LINE
  5
7947
330
7867
100
AcDbEntity
  8
标注
  6
Continuous
370
    -2
100
AcDbLine
 10
1124.884728092152
 20
170.7141714926519
 30
0.0
 11
1124.884728092152
 21
173.8900593770162
 31
0.0
  0
SOLID
  5
7948
330
7867
100
AcDbEntity
  8
标注
100
AcDbTrace
 10
1124.776394758818
 20
178.4130482163601
 30
0.0
 11
1124.993061425485
 21
178.4130482163601
 31
0.0
 12
1124.884728092152
 22
179.0630482163601
 32
0.0
 13
1124.884728092152
 23
179.0630482163601
 33
0.0
  0
SOLID
  5
7949
330
7867
100
AcDbEntity
  8
标注
100
AcDbTrace
 10
1124.776394758818
 20
170.7141714926519
 30
0.0
 11
1124.993061425485
 21
170.7141714926519
 31
0.0
 12
1124.884728092152
 22
170.0641714926519
 32
0.0
 13
1124.884728092152
 23
170.0641714926519
 33
0.0
  0
MTEXT
  5
794A
330
7867
100
AcDbEntity
  8
标注
100
AcDbMText
 10
1124.884728092152
 20
174.5636098545062
 30
0.0
 40
0.65
 41
0.0
 71
     5
 72
     1
  1
\A1;9"
 11
0.0000000000000001
 21
1.0
 31
0.0
 73
     1
 44
1.0
1001
ACAD
1000
MTEXTBEGIN
1070
    73
1070
     1
1070
    44
1040
1.0
1070
    74
1070
     0
1000
MTEXTEND
  0
POINT
  5
794B
330
7867
100
AcDbEntity
  8
DEFPOINTS
 62
     0
100
AcDbPoint
 10
1122.986604452873
 20
179.0630482163601
 30
0.0
  0
POINT
  5
794C
330
7867
100
AcDbEntity
  8
DEFPOINTS
 62
     0
100
AcDbPoint
 10
1122.548083086796
 20
170.0641714926519
 30
0.0
  0
POINT
  5
794D
330
7867
100
AcDbEntity
  8
DEFPOINTS
 62
     0
100
AcDbPoint
 10
1124.884728092152
 20
170.0641714926519
 30
0.0
  0
ENDBLK
  5
7869
330
7867
100
AcDbEntity
  8
0
100
AcDbBlockEnd
  0
BLOCK
  5
7896
330
7895
100
AcDbEntity
  8
0
100
AcDbBlockBegin
  2
*D72
 70
     1
 10
0.0
 20
0.0
 30
0.0
  3
*D72
  1

  0
LINE
  5
7898
330
7895
100
AcDbEntity
  8
标注
  6
Continuous
370
    -2
100
AcDbLine
 10
1107.445130334932
 20
105.7204439909726
 30
0.0
 11
1107.445130334932
 21
103.5248886977136
 31
0.0
  0
LINE
  5
7899
330
7895
100
AcDbEntity
  8
标注
  6
Continuous
370
    -2
100
AcDbLine
 10
1122.602580334938
 20
105.7204439909726
 30
0.0
 11
1122.602580334938
 21
103.5248886977136
 31
0.0
  0
LINE
  5
789A
330
7895
100
AcDbEntity
  8
标注
  6
Continuous
370
    -2
100
AcDbLine
 10
1108.095130334932
 20
103.8448886977135
 30
0.0
 11
1113.371092715562
 21
103.8448886977135
 31
0.0
  0
LINE
  5
789B
330
7895
100
AcDbEntity
  8
标注
  6
Continuous
370
    -2
100
AcDbLine
 10
1121.952580334938
 20
103.8448886977135
 30
0.0
 11
1116.676617954307
 21
103.8448886977135
 31
0.0
  0
SOLID
  5
789C
330
7895
100
AcDbEntity
  8
标注
100
AcDbTrace
 10
1108.095130334932
 20
103.9532220310469
 30
0.0
 11
1108.095130334932
 21
103.7365553643802
 31
0.0
 12
1107.445130334932
 22
103.8448886977135
 32
0.0
 13
1107.445130334932
 23
103.8448886977135
 33
0.0
  0
SOLID
  5
789D
330
7895
100
AcDbEntity
  8
标注
100
AcDbTrace
 10
1121.952580334938
 20
103.9532220310469
 30
0.0
 11
1121.952580334938
 21
103.7365553643802
 31
0.0
 12
1122.602580334938
 22
103.8448886977135
 32
0.0
 13
1122.602580334938
 23
103.8448886977135
 33
0.0
  0
MTEXT
  5
789E
330
7895
100
AcDbEntity
  8
标注
100
AcDbMText
 10
1115.023855334935
 20
103.8448886977135
 30
0.0
 40
0.65
 41
0.0
 71
     5
 72
     1
  1
\A1;15 1/8"
 73
     1
 44
1.0
1001
ACAD
1000
MTEXTBEGIN
1070
    73
1070
     1
1070
    44
1040
1.0
1070
    74
1070
     0
1000
MTEXTEND
  0
POINT
  5
789F
330
7895
100
AcDbEntity
  8
DEFPOINTS
 62
     0
100
AcDbPoint
 10
1107.445130334932
 20
106.6004439909726
 30
0.0
  0
POINT
  5
78A0
330
7895
100
AcDbEntity
  8
DEFPOINTS
 62
     0
100
AcDbPoint
 10
1122.602580334938
 20
106.6004439909726
 30
0.0
  0
POINT
  5
78A1
330
7895
100
AcDbEntity
  8
DEFPOINTS
 62
     0
100
AcDbPoint
 10
1122.602580334938
 20
103.8448886977135
 30
0.0
  0
ENDBLK
  5
7897
330
7895
100
AcDbEntity
  8
0
100
AcDbBlockEnd
  0
BLOCK
  5
78A4
330
78A3
100
AcDbEntity
  8
0
100
AcDbBlockBegin
  2
*D73
 70
     1
 10
0.0
 20
0.0
 30
0.0
  3
*D73
  1

  0
LINE
  5
78A6
330
78A3
100
AcDbEntity
  8
标注
  6
Continuous
370
    -2
100
AcDbLine
 10
1123.010140334933
 20
106.1280039909749
 30
0.0
 11
1125.014071646822
 21
106.1280039909749
 31
0.0
  0
LINE
  5
78A7
330
78A3
100
AcDbEntity
  8
标注
  6
Continuous
370
    -2
100
AcDbLine
 10
1123.010140334933
 20
122.2854519909752
 30
0.0
 11
1125.014071646822
 21
122.2854519909752
 31
0.0
  0
LINE
  5
78A8
330
78A3
100
AcDbEntity
  8
标注
  6
Continuous
370
    -2
100
AcDbLine
 10
1124.694071646822
 20
106.7780039909749
 30
0.0
 11
1124.694071646822
 21
112.5539653716026
 31
0.0
  0
LINE
  5
78A9
330
78A3
100
AcDbEntity
  8
标注
  6
Continuous
370
    -2
100
AcDbLine
 10
1124.694071646822
 20
121.6354519909752
 30
0.0
 11
1124.694071646822
 21
115.8594906103475
 31
0.0
  0
SOLID
  5
78AA
330
78A3
100
AcDbEntity
  8
标注
100
AcDbTrace
 10
1124.585738313489
 20
106.7780039909749
 30
0.0
 11
1124.802404980155
 21
106.7780039909749
 31
0.0
 12
1124.694071646822
 22
106.1280039909749
 32
0.0
 13
1124.694071646822
 23
106.1280039909749
 33
0.0
  0
SOLID
  5
78AB
330
78A3
100
AcDbEntity
  8
标注
100
AcDbTrace
 10
1124.585738313489
 20
121.6354519909752
 30
0.0
 11
1124.802404980155
 21
121.6354519909752
 31
0.0
 12
1124.694071646822
 22
122.2854519909752
 32
0.0
 13
1124.694071646822
 23
122.2854519909752
 33
0.0
  0
MTEXT
  5
78AC
330
78A3
100
AcDbEntity
  8
标注
100
AcDbMText
 10
1124.694071646822
 20
114.2067279909752
 30
0.0
 40
0.65
 41
0.0
 71
     5
 72
     1
  1
\A1;16 1/8"
 11
0.0000000000000001
 21
1.0
 31
0.0
 73
     1
 44
1.0
1001
ACAD
1000
MTEXTBEGIN
1070
    73
1070
     1
1070
    44
1040
1.0
1070
    74
1070
     0
1000
MTEXTEND
  0
POINT
  5
78AD
330
78A3
100
AcDbEntity
  8
DEFPOINTS
 62
     0
100
AcDbPoint
 10
1122.130140334933
 20
106.1280039909749
 30
0.0
  0
POINT
  5
78AE
330
78A3
100
AcDbEntity
  8
DEFPOINTS
 62
     0
100
AcDbPoint
 10
1122.130140334933
 20
122.2854519909752
 30
0.0
  0
POINT
  5
78AF
330
78A3
100
AcDbEntity
  8
DEFPOINTS
 62
     0
100
AcDbPoint
 10
1124.694071646822
 20
122.2854519909752
 30
0.0
  0
ENDBLK
  5
78A5
330
78A3
100
AcDbEntity
  8
0
100
AcDbBlockEnd
  0
BLOCK
  5
78B2
330
78B1
100
AcDbEntity
  8
0
100
AcDbBlockBegin
  2
*D74
 70
     1
 10
0.0
 20
0.0
 30
0.0
  3
*D74
  1

  0
LINE
  5
78CE
330
78B1
100
AcDbEntity
  8
标注
  6
Continuous
370
    -2
100
AcDbLine
 10
1106.985710401935
 20
105.9747374951893
 30
0.0
 11
1106.4460744691
 21
105.6123936529713
 31
0.0
  0
MTEXT
  5
78CF
330
78B1
100
AcDbEntity
  8
标注
100
AcDbMText
 10
1108.732334132357
 20
107.5853717508653
 30
0.0
 40
0.65
 41
0.0
 71
     5
 72
     1
  1
\A1;4-R1/2"
 11
0.8302091274385301
 21
0.5574520649506596
 31
0.0
 73
     1
 44
1.0
1001
ACAD
1000
MTEXTBEGIN
1070
    73
1070
     1
1070
    44
1040
1.0
1070
    74
1070
     0
1000
MTEXTEND
  0
LINE
  5
78D0
330
78B1
100
AcDbEntity
  8
标注
  6
Continuous
370
    -2
100
AcDbLine
 10
1107.917570334937
 20
106.6004439909723
 30
0.0
 11
1107.52534633477
 21
106.3370813374071
 31
0.0
  0
SOLID
  5
78D1
330
78B1
100
AcDbEntity
  8
标注
100
AcDbTrace
 10
1106.925319761565
 20
106.0646768173284
 30
0.0
 11
1107.046101042305
 21
105.88479817305
 31
0.0
 12
1107.52534633477
 22
106.3370813374071
 32
0.0
 13
1107.52534633477
 23
106.3370813374071
 33
0.0
  0
POINT
  5
78D2
330
78B1
100
AcDbEntity
  8
DEFPOINTS
 62
     0
100
AcDbPoint
 10
1107.52534633477
 20
106.3370813374071
 30
0.0
  0
POINT
  5
78D3
330
78B1
100
AcDbEntity
  8
DEFPOINTS
 62
     0
100
AcDbPoint
 10
1107.917570334937
 20
106.6004439909723
 30
0.0
  0
ENDBLK
  5
78B3
330
78B1
100
AcDbEntity
  8
0
100
AcDbBlockEnd
  0
BLOCK
  5
78BC
330
78BB
100
AcDbEntity
  8
0
100
AcDbBlockBegin
  2
*D75
 70
     1
 10
0.0
 20
0.0
 30
0.0
  3
*D75
  1

  0
LINE
  5
78BE
330
78BB
100
AcDbEntity
  8
标注
  6
Continuous
370
    -2
100
AcDbLine
 10
1106.484487898144
 20
139.1742474267886
 30
0.0
 11
1105.926567460685
 21
138.8407436255131
 31
0.0
  0
MTEXT
  5
78BF
330
78BB
100
AcDbEntity
  8
标注
100
AcDbMText
 10
1108.066615641502
 20
140.5996201438678
 30
0.0
 40
0.65
 41
0.0
 71
     5
 72
     1
  1
\A1;R3/8"
 11
0.858339134552834
 21
0.5130827711930034
 31
0.0
 73
     1
 44
1.0
1001
ACAD
1000
MTEXTBEGIN
1070
    73
1070
     1
1070
    44
1040
1.0
1070
    74
1070
     0
1000
MTEXTEND
  0
LINE
  5
78C0
330
78BB
100
AcDbEntity
  8
标注
  6
Continuous
370
    -2
100
AcDbLine
 10
1107.380336452877
 20
139.7097519150827
 30
0.0
 11
1107.042408335604
 21
139.507751228064
 31
0.0
  0
SOLID
  5
78C1
330
78BB
100
AcDbEntity
  8
标注
100
AcDbTrace
 10
1106.428903931265
 20
139.2672341663651
 30
0.0
 11
1106.540071865024
 21
139.081260687212
 31
0.0
 12
1107.042408335604
 22
139.507751228064
 32
0.0
 13
1107.042408335604
 23
139.507751228064
 33
0.0
  0
POINT
  5
78C2
330
78BB
100
AcDbEntity
  8
DEFPOINTS
 62
     0
100
AcDbPoint
 10
1107.042408335604
 20
139.507751228064
 30
0.0
  0
POINT
  5
78C3
330
78BB
100
AcDbEntity
  8
DEFPOINTS
 62
     0
100
AcDbPoint
 10
1107.380336452877
 20
139.7097519150827
 30
0.0
  0
ENDBLK
  5
78BD
330
78BB
100
AcDbEntity
  8
0
100
AcDbBlockEnd
  0
BLOCK
  5
78C6
330
78C5
100
AcDbEntity
  8
0
100
AcDbBlockBegin
  2
*D76
 70
     1
 10
0.0
 20
0.0
 30
0.0
  3
*D76
  1

  0
LINE
  5
793E
330
78C5
100
AcDbEntity
  8
标注
  6
Continuous
370
    -2
100
AcDbLine
 10
1106.442666209078
 20
170.0912577210732
 30
0.0
 11
1105.858699879223
 21
169.8058048780396
 31
0.0
  0
MTEXT
  5
793F
330
78C5
100
AcDbEntity
  8
标注
100
AcDbMText
 10
1108.168927816196
 20
171.2974778632309
 30
0.0
 40
0.65
 41
0.0
 71
     5
 72
     1
  1
\A1;R3/8"
 11
0.898409738238068
 21
0.4391582200517327
 31
0.0
 73
     1
 44
1.0
1001
ACAD
1000
MTEXTBEGIN
1070
    73
1070
     1
1070
    44
1040
1.0
1070
    74
1070
     0
1000
MTEXTEND
  0
LINE
  5
7940
330
78C5
100
AcDbEntity
  8
标注
  6
Continuous
370
    -2
100
AcDbLine
 10
1107.380336452877
 20
170.5496071553412
 30
0.0
 11
1107.026632538933
 21
170.3767105641069
 31
0.0
  0
SOLID
  5
7941
330
78C5
100
AcDbEntity
  8
标注
100
AcDbTrace
 10
1106.395090735239
 20
170.1885854427157
 30
0.0
 11
1106.490241682917
 21
169.9939299994307
 31
0.0
 12
1107.026632538933
 22
170.3767105641069
 32
0.0
 13
1107.026632538933
 23
170.3767105641069
 33
0.0
  0
POINT
  5
7942
330
78C5
100
AcDbEntity
  8
DEFPOINTS
 62
     0
100
AcDbPoint
 10
1107.026632538933
 20
170.3767105641069
 30
0.0
  0
POINT
  5
7943
330
78C5
100
AcDbEntity
  8
DEFPOINTS
 62
     0
100
AcDbPoint
 10
1107.380336452877
 20
170.5496071553412
 30
0.0
  0
ENDBLK
  5
78C7
330
78C5
100
AcDbEntity
  8
0
100
AcDbBlockEnd
  0
ENDSEC
  0
SECTION
  2
ENTITIES
  0
LINE
  5
77CE
330
5F6E
100
AcDbEntity
  8
0
100
AcDbLine
 10
1106.888211452873
 20
179.0630482163601
 30
0.0
 11
1122.085031452877
 21
179.0630482163601
 31
0.0
  0
LINE
  5
77CF
330
5F6E
100
AcDbEntity
  8
0
100
AcDbLine
 10
1122.085031452877
 20
179.0630482163601
 30
0.0
 11
1122.986604452873
 21
179.0630482163601
 31
0.0
  0
ARC
  5
77D0
330
5F6E
100
AcDbEntity
  8
虚线
 48
0.1
100
AcDbCircle
 10
1122.085031452877
 20
178.9646232163708
 30
0.0
 40
0.098425
100
AcDbArc
 50
90.0
 51
180.0
  0
LINE
  5
77D1
330
5F6E
100
AcDbEntity
  8
0
100
AcDbLine
 10
1122.085031452877
 20
179.0039932163695
 30
0.0
 11
1122.986604452873
 21
179.0039932163695
 31
0.0
  0
ARC
  5
77D2
330
5F6E
100
AcDbEntity
  8
0
100
AcDbCircle
 10
1122.085031452877
 20
178.9646232163708
 30
0.0
 40
0.03937
100
AcDbArc
 50
90.0
 51
180.0
  0
LINE
  5
77D3
330
5F6E
100
AcDbEntity
  8
虚线
 48
0.1
100
AcDbLine
 10
1121.986606452874
 20
170.5496071553411
 30
0.0
 11
1121.986606452874
 21
178.9646232163708
 31
0.0
  0
ARC
  5
77D4
330
5F6E
100
AcDbEntity
  8
虚线
 48
0.1
100
AcDbCircle
 10
1121.592906452873
 20
170.5496071553411
 30
0.0
 40
0.3937
100
AcDbArc
 50
271.1019374693026
 51
0.0
  0
LINE
  5
77D5
330
5F6E
100
AcDbEntity
  8
0
100
AcDbLine
 10
1122.045661452879
 20
170.5496071553411
 30
0.0
 11
1122.045661452879
 21
178.9646232163708
 31
0.0
  0
ARC
  5
77D6
330
5F6E
100
AcDbEntity
  8
0
100
AcDbCircle
 10
1121.592906452873
 20
170.5496071553411
 30
0.0
 40
0.452755
100
AcDbArc
 50
271.1019374693026
 51
0.0
  0
LINE
  5
77D7
330
5F6E
100
AcDbEntity
  8
虚线
 48
0.1
100
AcDbLine
 10
1106.986636452876
 20
178.9646232163708
 30
0.0
 11
1106.986636452876
 21
170.5496071553411
 31
0.0
  0
ARC
  5
77D8
330
5F6E
100
AcDbEntity
  8
虚线
 48
0.1
100
AcDbCircle
 10
1106.888211452873
 20
178.9646232163708
 30
0.0
 40
0.098425
100
AcDbArc
 50
0.0
 51
90.0
  0
LINE
  5
77D9
330
5F6E
100
AcDbEntity
  8
0
100
AcDbLine
 10
1106.927581452878
 20
178.9646232163708
 30
0.0
 11
1106.927581452878
 21
170.5496071553411
 31
0.0
  0
ARC
  5
77DA
330
5F6E
100
AcDbEntity
  8
0
100
AcDbCircle
 10
1106.888211452873
 20
178.9646232163708
 30
0.0
 40
0.03937
100
AcDbArc
 50
0.0
 51
90.0
  0
LINE
  5
77DB
330
5F6E
100
AcDbEntity
  8
0
100
AcDbLine
 10
1105.986638452877
 20
179.0630482163601
 30
0.0
 11
1106.888211452873
 21
179.0630482163601
 31
0.0
  0
LINE
  5
77DC
330
5F6E
100
AcDbEntity
  8
0
100
AcDbLine
 10
1105.986638452877
 20
179.0039932163695
 30
0.0
 11
1106.888211452873
 21
179.0039932163695
 31
0.0
  0
LINE
  5
77DD
330
5F6E
100
AcDbEntity
  8
0
100
AcDbLine
 10
1122.13903027697
 20
138.3160539150829
 30
0.0
 11
1106.834212628773
 21
138.3160539150829
 31
0.0
  0
ARC
  5
77DE
330
5F6E
100
AcDbEntity
  8
0
100
AcDbCircle
 10
1106.834212628773
 20
138.39479391508
 30
0.0
 40
0.07874
100
AcDbArc
 50
225.0000000002994
 51
270.0
  0
LINE
  5
77DF
330
5F6E
100
AcDbEntity
  8
0
100
AcDbLine
 10
1122.986604452873
 20
155.4684437391822
 30
0.0
 11
1122.986604452873
 21
139.1636280909859
 31
0.0
  0
ARC
  5
77E0
330
5F6E
100
AcDbEntity
  8
0
100
AcDbCircle
 10
1122.907864452876
 20
155.4684437391822
 30
0.0
 40
0.07874
100
AcDbArc
 50
0.0
 51
45.00000000029938
  0
ARC
  5
77E1
330
5F6E
100
AcDbEntity
  8
0
100
AcDbCircle
 10
1122.907864452876
 20
139.1636280909859
 30
0.0
 40
0.07874
100
AcDbArc
 50
314.9999999997006
 51
0.0
  0
LINE
  5
77E2
330
5F6E
100
AcDbEntity
  8
0
100
AcDbLine
 10
1122.194707864922
 20
138.3391163271278
 30
0.0
 11
1122.963542040828
 21
139.1079505030336
 31
0.0
  0
ARC
  5
77E3
330
5F6E
100
AcDbEntity
  8
0
100
AcDbCircle
 10
1122.13903027697
 20
138.39479391508
 30
0.0
 40
0.07874
100
AcDbArc
 50
270.0
 51
314.9999999997006
  0
LINE
  5
77E4
330
5F6E
100
AcDbEntity
  8
0
100
AcDbLine
 10
1122.194707864922
 20
156.2929555030402
 30
0.0
 11
1122.963542040828
 21
155.5241213271345
 31
0.0
  0
LINE
  5
77E5
330
5F6E
100
AcDbEntity
  8
0
100
AcDbLine
 10
1105.986638452877
 20
139.1636280909859
 30
0.0
 11
1105.986638452877
 21
155.4684437391822
 31
0.0
  0
ARC
  5
77E6
330
5F6E
100
AcDbEntity
  8
0
100
AcDbCircle
 10
1106.065378452874
 20
155.4684437391822
 30
0.0
 40
0.07874
100
AcDbArc
 50
134.9999999997006
 51
180.0
  0
ARC
  5
77E7
330
5F6E
100
AcDbEntity
  8
0
100
AcDbCircle
 10
1106.065378452874
 20
139.1636280909859
 30
0.0
 40
0.07874
100
AcDbArc
 50
180.0
 51
225.0000000002994
  0
LINE
  5
77E8
330
5F6E
100
AcDbEntity
  8
0
100
AcDbLine
 10
1106.778535040828
 20
138.3391163271278
 30
0.0
 11
1106.009700864922
 21
139.1079505030336
 31
0.0
  0
LINE
  5
77E9
330
5F6E
100
AcDbEntity
  8
0
100
AcDbLine
 10
1106.83421262878
 20
156.3160179150852
 30
0.0
 11
1122.139030276977
 21
156.3160179150852
 31
0.0
  0
ARC
  5
77EA
330
5F6E
100
AcDbEntity
  8
0
100
AcDbCircle
 10
1106.83421262878
 20
156.237277915088
 30
0.0
 40
0.07874
100
AcDbArc
 50
90.0
 51
134.9999999997006
  0
ARC
  5
77EB
330
5F6E
100
AcDbEntity
  8
0
100
AcDbCircle
 10
1122.139030276977
 20
156.237277915088
 30
0.0
 40
0.07874
100
AcDbArc
 50
45.00000000029938
 51
90.0
  0
LINE
  5
77EC
330
5F6E
100
AcDbEntity
  8
0
100
AcDbLine
 10
1106.009700864922
 20
155.5241213271345
 30
0.0
 11
1106.778535040828
 21
156.2929555030402
 31
0.0
  0
LINE
  5
77ED
330
5F6E
100
AcDbEntity
  8
0
100
AcDbLine
 10
1106.986636452876
 20
154.9223199150854
 30
0.0
 11
1106.986636452876
 21
139.7097519150827
 31
0.0
  0
ARC
  5
77EE
330
5F6E
100
AcDbEntity
  8
0
100
AcDbCircle
 10
1107.380336452877
 20
139.7097519150827
 30
0.0
 40
0.3937
100
AcDbArc
 50
180.0
 51
270.0
  0
LINE
  5
77EF
330
5F6E
100
AcDbEntity
  8
0
100
AcDbLine
 10
1107.380336452877
 20
139.3160519150822
 30
0.0
 11
1121.592906452873
 21
139.3160519150822
 31
0.0
  0
LINE
  5
77F0
330
5F6E
100
AcDbEntity
  8
0
100
AcDbLine
 10
1121.592906452873
 20
155.3160199150859
 30
0.0
 11
1107.380336452877
 21
155.3160199150859
 31
0.0
  0
ARC
  5
77F1
330
5F6E
100
AcDbEntity
  8
0
100
AcDbCircle
 10
1107.380336452877
 20
154.9223199150854
 30
0.0
 40
0.3937
100
AcDbArc
 50
90.0
 51
180.0
  0
LINE
  5
77F2
330
5F6E
100
AcDbEntity
  8
0
100
AcDbLine
 10
1121.986606452874
 20
139.7097519150827
 30
0.0
 11
1121.986606452874
 21
154.9223199150854
 31
0.0
  0
ARC
  5
77F3
330
5F6E
100
AcDbEntity
  8
0
100
AcDbCircle
 10
1121.592906452873
 20
139.7097519150827
 30
0.0
 40
0.3937
100
AcDbArc
 50
270.0
 51
0.0
  0
ARC
  5
77F4
330
5F6E
100
AcDbEntity
  8
0
100
AcDbCircle
 10
1121.592906452873
 20
154.9223199150854
 30
0.0
 40
0.3937
100
AcDbArc
 50
0.0
 51
90.0
  0
LINE
  5
77F5
330
5F6E
100
AcDbEntity
  8
细实线
100
AcDbLine
 10
1107.774036452878
 20
154.5286199150848
 30
0.0
 11
1112.491899452337
 21
151.8998985957275
 31
0.0
  0
LINE
  5
77F6
330
5F6E
100
AcDbEntity
  8
细实线
100
AcDbLine
 10
1107.774036452878
 20
140.1034519150832
 30
0.0
 11
1113.271910545246
 21
148.8549066286921
 31
0.0
  0
LINE
  5
77F7
330
5F6E
100
AcDbEntity
  8
细实线
100
AcDbLine
 10
1116.481343453413
 20
151.8998985957275
 30
0.0
 11
1121.199206452873
 21
154.5286199150848
 31
0.0
  0
LINE
  5
77F8
330
5F6E
100
AcDbEntity
  8
细实线
100
AcDbLine
 10
1115.701332360504
 20
148.8549066286921
 30
0.0
 11
1121.199206452873
 21
140.1034519150832
 31
0.0
  0
CIRCLE
  5
77F9
330
5F6E
100
AcDbEntity
  8
细实线
100
AcDbCircle
 10
1114.486621452879
 20
150.788469915087
 30
0.0
 40
1.771649999999999
  0
CIRCLE
  5
77FA
330
5F6E
100
AcDbEntity
  8
细实线
100
AcDbCircle
 10
1114.486621452879
 20
150.788469915087
 30
0.0
 40
2.16535
  0
CIRCLE
  5
77FB
330
5F6E
100
AcDbEntity
  8
细实线
100
AcDbCircle
 10
1114.486621452879
 20
150.788469915087
 30
0.0
 40
2.283459999999999
  0
LINE
  5
77FC
330
5F6E
100
AcDbEntity
  8
0
100
AcDbLine
 10
1105.986638452877
 20
179.0039932163695
 30
0.0
 11
1105.986638452877
 21
179.0630482163601
 31
0.0
  0
LINE
  5
77FD
330
5F6E
100
AcDbEntity
  8
0
100
AcDbLine
 10
1122.986604452873
 20
179.0630482163601
 30
0.0
 11
1122.986604452873
 21
179.0039932163695
 31
0.0
  0
LINE
  5
77FE
330
5F6E
100
AcDbEntity
  8
虚线
 48
0.1
100
AcDbLine
 10
1112.158726011932
 20
170.0630682163669
 30
0.0
 11
1116.814516893826
 21
170.0630682163669
 31
0.0
  0
LINE
  5
77FF
330
5F6E
100
AcDbEntity
  8
0
100
AcDbLine
 10
1112.180811858639
 20
169.9844671854575
 30
0.0
 11
1112.260468682854
 21
169.8373587269657
 31
0.0
  0
LINE
  5
7800
330
5F6E
100
AcDbEntity
  8
0
100
AcDbLine
 10
1116.712774222896
 20
169.8373587269657
 30
0.0
 11
1116.792431047111
 21
169.9844671854575
 31
0.0
  0
ARC
  5
7801
330
5F6E
100
AcDbEntity
  8
0
100
AcDbCircle
 10
1116.626223277975
 20
169.8842246480403
 30
0.0
 40
0.098425
100
AcDbArc
 50
270.0
 51
331.5651796139367
  0
LINE
  5
7802
330
5F6E
100
AcDbEntity
  8
虚线
 48
0.1
100
AcDbLine
 10
1112.230469393047
 20
170.0126155614766
 30
0.0
 11
1112.310105472735
 21
169.8654843015015
 31
0.0
  0
LINE
  5
7803
330
5F6E
100
AcDbEntity
  8
虚线
 48
0.1
100
AcDbLine
 10
1112.344729110785
 20
169.8448546480417
 30
0.0
 11
1112.714971452876
 21
169.8448546480417
 31
0.0
  0
ARC
  5
7804
330
5F6E
100
AcDbEntity
  8
虚线
 48
0.1
100
AcDbCircle
 10
1112.344729110785
 20
169.8842246480403
 30
0.0
 40
0.03937
100
AcDbArc
 50
208.4248547926665
 51
270.0
  0
LINE
  5
7805
330
5F6E
100
AcDbEntity
  8
0
100
AcDbLine
 10
1112.347019627775
 20
169.7857996480365
 30
0.0
 11
1112.714971452876
 21
169.7857996480365
 31
0.0
  0
ARC
  5
7806
330
5F6E
100
AcDbEntity
  8
0
100
AcDbCircle
 10
1112.347019627775
 20
169.8842246480403
 30
0.0
 40
0.098425
100
AcDbArc
 50
208.4348203860634
 51
270.0
  0
LINE
  5
7807
330
5F6E
100
AcDbEntity
  8
虚线
 48
0.1
100
AcDbLine
 10
1112.714971452876
 20
169.8448546480417
 30
0.0
 11
1116.258271452874
 21
169.8448546480417
 31
0.0
  0
LINE
  5
7808
330
5F6E
100
AcDbEntity
  8
细实线
 48
3.0
100
AcDbLine
 10
1112.714971452876
 20
169.7857996480365
 30
0.0
 11
1116.258271452874
 21
169.7857996480365
 31
0.0
  0
LINE
  5
7809
330
5F6E
100
AcDbEntity
  8
虚线
 48
0.1
100
AcDbLine
 10
1116.258271452874
 20
169.8448546480417
 30
0.0
 11
1116.628513794972
 21
169.8448546480417
 31
0.0
  0
LINE
  5
780A
330
5F6E
100
AcDbEntity
  8
虚线
 48
0.1
100
AcDbLine
 10
1116.663137433015
 20
169.8654843015015
 30
0.0
 11
1116.742773512703
 21
170.0126155614766
 31
0.0
  0
ARC
  5
780B
330
5F6E
100
AcDbEntity
  8
虚线
 48
0.1
100
AcDbCircle
 10
1116.628513794972
 20
169.8842246480403
 30
0.0
 40
0.03937
100
AcDbArc
 50
270.0
 51
331.5751452073337
  0
LINE
  5
780C
330
5F6E
100
AcDbEntity
  8
0
100
AcDbLine
 10
1116.258271452874
 20
169.7857996480365
 30
0.0
 11
1116.626223277975
 21
169.7857996480365
 31
0.0
  0
LINE
  5
780D
330
5F6E
100
AcDbEntity
  8
虚线
 48
0.1
100
AcDbLine
 10
1112.714971452876
 20
169.8448546480417
 30
0.0
 11
1112.714971452876
 21
169.7857996480365
 31
0.0
  0
LINE
  5
780E
330
5F6E
100
AcDbEntity
  8
虚线
 48
0.1
100
AcDbLine
 10
1116.258271452874
 20
169.8448546480417
 30
0.0
 11
1116.258271452874
 21
169.7857996480365
 31
0.0
  0
LINE
  5
780F
330
5F6E
100
AcDbEntity
  8
虚线
 48
0.1
100
AcDbLine
 10
1116.827439771912
 20
170.0641714926519
 30
0.0
 11
1121.600477796518
 21
170.1559799652809
 31
0.0
  0
ARC
  5
7810
330
5F6E
100
AcDbEntity
  8
虚线
 48
0.1
100
AcDbCircle
 10
1116.829332607825
 20
169.9657646951295
 30
0.0
 40
0.098425
100
AcDbArc
 50
91.10193746930255
 51
151.5751452073335
  0
LINE
  5
7811
330
5F6E
100
AcDbEntity
  8
0
100
AcDbLine
 10
1116.826294290714
 20
170.0050835360221
 30
0.0
 11
1121.601613498065
 21
170.0969358867792
 31
0.0
  0
ARC
  5
7812
330
5F6E
100
AcDbEntity
  8
0
100
AcDbCircle
 10
1116.827051425081
 20
169.9657208170306
 30
0.0
 40
0.03937
100
AcDbArc
 50
91.10193746930255
 51
151.5651796139367
  0
LINE
  5
7813
330
5F6E
100
AcDbEntity
  8
虚线
 48
0.1
100
AcDbLine
 10
1112.145803133838
 20
170.0641714926519
 30
0.0
 11
1107.372765109231
 21
170.1559799652809
 31
0.0
  0
ARC
  5
7814
330
5F6E
100
AcDbEntity
  8
虚线
 48
0.1
100
AcDbCircle
 10
1112.143910297925
 20
169.9657646951295
 30
0.0
 40
0.098425
100
AcDbArc
 50
28.42485479266647
 51
88.89806253069744
  0
ARC
  5
7815
330
5F6E
100
AcDbEntity
  8
虚线
 48
0.1
100
AcDbCircle
 10
1107.380336452877
 20
170.5496071553411
 30
0.0
 40
0.3937
100
AcDbArc
 50
180.0
 51
268.8980625306974
  0
LINE
  5
7816
330
5F6E
100
AcDbEntity
  8
0
100
AcDbLine
 10
1112.146948615036
 20
170.0050835360366
 30
0.0
 11
1107.371629407685
 21
170.0969358867792
 31
0.0
  0
ARC
  5
7817
330
5F6E
100
AcDbEntity
  8
0
100
AcDbCircle
 10
1112.146191480669
 20
169.9657208170306
 30
0.0
 40
0.03937
100
AcDbArc
 50
28.43482038606331
 51
88.89806253069744
  0
ARC
  5
7818
330
5F6E
100
AcDbEntity
  8
0
100
AcDbCircle
 10
1107.380336452877
 20
170.5496071553411
 30
0.0
 40
0.452755
100
AcDbArc
 50
180.0
 51
268.8980625306974
  0
LINE
  5
7819
330
5F6E
100
AcDbEntity
  8
0
100
AcDbLine
 10
1112.146948615036
 20
170.0050835360366
 30
0.0
 11
1116.826294290714
 21
170.0050835360221
 31
0.0
  0
LINE
  5
781A
330
5F6E
100
AcDbEntity
  8
0
100
AcDbLine
 10
1106.888211452873
 20
179.0039932163695
 30
0.0
 11
1122.085031452877
 21
179.0039932163695
 31
0.0
  0
LINE
  5
781B
330
5F6E
100
AcDbEntity
  8
中心线
  6
Continuous
 62
     1
100
AcDbLine
 10
1107.917570334937
 20
122.285451990973
 30
0.0
 11
1122.130140334933
 21
122.285451990973
 31
0.0
  0
ARC
  5
781C
330
5F6E
100
AcDbEntity
  8
中心线
  6
Continuous
 62
     1
100
AcDbCircle
 10
1107.917570334937
 20
121.8130119909752
 30
0.0
 40
0.4724400000000001
100
AcDbArc
 50
90.0
 51
180.0
  0
LINE
  5
781D
330
5F6E
100
AcDbEntity
  8
中心线
  6
Continuous
 62
     1
100
AcDbLine
 10
1122.602580334938
 20
121.8130119909752
 30
0.0
 11
1122.602580334938
 21
106.6004439909726
 31
0.0
  0
ARC
  5
781E
330
5F6E
100
AcDbEntity
  8
中心线
  6
Continuous
 62
     1
100
AcDbCircle
 10
1122.130140334933
 20
106.6004439909726
 30
0.0
 40
0.4724400000000001
100
AcDbArc
 50
270.0
 51
0.0
  0
ARC
  5
781F
330
5F6E
100
AcDbEntity
  8
中心线
  6
Continuous
 62
     1
100
AcDbCircle
 10
1122.130140334933
 20
121.8130119909752
 30
0.0
 40
0.4724400000000001
100
AcDbArc
 50
0.0
 51
90.0
  0
LINE
  5
7820
330
5F6E
100
AcDbEntity
  8
中心线
  6
Continuous
 62
     1
100
AcDbLine
 10
1122.130140334933
 20
106.1280039909749
 30
0.0
 11
1107.917570334937
 21
106.1280039909749
 31
0.0
  0
LINE
  5
7821
330
5F6E
100
AcDbEntity
  8
中心线
  6
Continuous
 62
     1
100
AcDbLine
 10
1107.445130334932
 20
106.6004439909726
 30
0.0
 11
1107.445130334932
 21
121.8130119909752
 31
0.0
  0
ARC
  5
7822
330
5F6E
100
AcDbEntity
  8
中心线
  6
Continuous
 62
     1
100
AcDbCircle
 10
1107.917570334937
 20
106.6004439909726
 30
0.0
 40
0.4724400000000001
100
AcDbArc
 50
180.0
 51
270.0
  0
LINE
  5
7829
330
5F6E
100
AcDbEntity
  8
中心线
 48
2.0
100
AcDbLine
 10
1114.486621452875
 20
168.4283435733807
 30
0.0
 11
1114.486621452875
 21
171.697792859353
 31
0.0
  0
TEXT
  5
782A
330
5F6E
100
AcDbEntity
  8
标注
100
AcDbText
 10
1111.152493724778
 20
163.7811335621119
 30
0.0
 40
0.7874015748031497
  1
FRONT VIEW
100
AcDbText
  0
TEXT
  5
782B
330
5F6E
100
AcDbEntity
  8
标注
100
AcDbText
 10
1109.752570033315
 20
130.7070356724055
 30
0.0
 40
0.7874015748031497
  1
OVERHEAD VIEW
100
AcDbText
  0
TEXT
  5
782C
330
5F6E
100
AcDbEntity
  8
标注
100
AcDbText
 10
1116.999528525056
 20
99.72271313268722
 30
0.0
 40
0.7874015748031497
  1
 CUTOUT
100
AcDbText
  0
LINE
  5
782D
330
5F6E
100
AcDbEntity
  8
中心线
  6
Continuous
 62
     1
100
AcDbLine
 10
1109.334122444488
 20
99.97591459999206
 30
0.0
 11
1115.550927448572
 21
99.97591459999206
 31
0.0
  0
DIMENSION
  5
782E
330
5F6E
100
AcDbEntity
  8
标注
100
AcDbDimension
  2
*D67
 10
1121.986606452873
 20
136.5682412200543
 30
0.0
 11
1114.486621452875
 21
136.5682412200543
 31
0.0
 70
    32
 71
     5
 42
14.99996999999666
  3
副本STANDARD
100
AcDbAlignedDimension
 13
1106.986636452876
 23
139.7097519150827
 33
0.0
 14
1121.986606452873
 24
139.7097519150827
 34
0.0
100
AcDbRotatedDimension
1001
ACAD
1000
DSTYLE
1002
{
1070
   345
1005
5F5E
1070
   346
1005
5F5E
1070
   347
1005
5F5E
1002
}
  0
DIMENSION
  5
783C
330
5F6E
100
AcDbEntity
  8
标注
100
AcDbDimension
  2
*D68
 10
1122.986604452876
 20
134.9091967194725
 30
0.0
 11
1114.486621452875
 21
134.9091967194725
 31
0.0
 70
    32
 71
     5
 42
16.99996600000122
  3
副本STANDARD
100
AcDbAlignedDimension
 13
1105.986638452874
 23
139.1636280909859
 33
0.0
 14
1122.986604452876
 24
139.1636280909859
 34
0.0
100
AcDbRotatedDimension
1001
ACAD
1000
DSTYLE
1002
{
1070
   345
1005
5F5E
1070
   346
1005
5F5E
1070
   347
1005
5F5E
1002
}
  0
DIMENSION
  5
784A
330
5F6E
100
AcDbEntity
  8
标注
100
AcDbDimension
  2
*D69
 10
1125.118848814821
 20
155.3160199150859
 30
0.0
 11
1125.118848814821
 21
147.3160359150842
 31
0.0
 70
    32
 71
     5
 42
15.99996800000372
  3
副本STANDARD
100
AcDbAlignedDimension
 13
1121.592906452873
 23
139.3160519150822
 33
0.0
 14
1121.592906452873
 24
155.3160199150859
 34
0.0
 50
90.0
100
AcDbRotatedDimension
1001
ACAD
1000
DSTYLE
1002
{
1070
   345
1005
5F5E
1070
   346
1005
5F5E
1070
   347
1005
5F5E
1002
}
  0
DIMENSION
  5
7858
330
5F6E
100
AcDbEntity
  8
标注
100
AcDbDimension
  2
*D70
 10
1126.71275149989
 20
156.3160179150852
 30
0.0
 11
1126.71275149989
 21
147.3160359150842
 31
0.0
 70
    32
 71
     5
 42
17.99996400000236
  3
副本STANDARD
100
AcDbAlignedDimension
 13
1121.986606452873
 23
138.3160539150829
 33
0.0
 14
1121.986606452873
 24
156.3160179150852
 34
0.0
 50
90.0
100
AcDbRotatedDimension
1001
ACAD
1000
DSTYLE
1002
{
1070
   345
1005
5F5E
1070
   346
1005
5F5E
1070
   347
1005
5F5E
1002
}
  0
DIMENSION
  5
7866
330
5F6E
100
AcDbEntity
  8
标注
100
AcDbDimension
  2
*D71
 10
1124.884728092152
 20
170.0641714926519
 30
0.0
 11
1124.884728092152
 21
174.5636098545062
 31
0.0
 70
    32
 71
     5
 42
8.998876723708207
  3
副本STANDARD
100
AcDbAlignedDimension
 13
1122.986604452873
 23
179.0630482163601
 33
0.0
 14
1122.548083086796
 24
170.0641714926519
 34
0.0
 50
90.0
100
AcDbRotatedDimension
1001
ACAD
1000
DSTYLE
1002
{
1070
   345
1005
5F5E
1070
   346
1005
5F5E
1070
   347
1005
5F5E
1002
}
  0
DIMENSION
  5
7894
330
5F6E
100
AcDbEntity
  8
标注
100
AcDbDimension
  2
*D72
 10
1122.602580334938
 20
103.8448886977135
 30
0.0
 11
1115.023855334935
 21
103.8448886977135
 31
0.0
 70
    32
 71
     5
 42
15.15745000000606
  3
副本STANDARD
100
AcDbAlignedDimension
 13
1107.445130334932
 23
106.6004439909726
 33
0.0
 14
1122.602580334938
 24
106.6004439909726
 34
0.0
100
AcDbRotatedDimension
1001
ACAD
1000
DSTYLE
1002
{
1070
   345
1005
5F5E
1070
   346
1005
5F5E
1070
   347
1005
5F5E
1002
}
  0
DIMENSION
  5
78A2
330
5F6E
100
AcDbEntity
  8
标注
100
AcDbDimension
  2
*D73
 10
1124.694071646822
 20
122.2854519909752
 30
0.0
 11
1124.694071646822
 21
114.2067279909752
 31
0.0
 70
    32
 71
     5
 42
16.15744800000038
  3
副本STANDARD
100
AcDbAlignedDimension
 13
1122.130140334933
 23
106.1280039909749
 33
0.0
 14
1122.130140334933
 24
122.2854519909752
 34
0.0
 50
90.0
100
AcDbRotatedDimension
1001
ACAD
1000
DSTYLE
1002
{
1070
   345
1005
5F5E
1070
   346
1005
5F5E
1070
   347
1005
5F5E
1002
}
  0
DIMENSION
  5
78B0
330
5F6E
100
AcDbEntity
  8
标注
100
AcDbDimension
  2
*D74
 10
1107.917570334937
 20
106.6004439909723
 30
0.0
 11
1108.732334132357
 21
107.5853717508653
 31
0.0
 70
   164
  1
4-<>
 71
     5
 42
0.4724399999996649
  3
副本STANDARD
100
AcDbRadialDimension
 15
1107.52534633477
 25
106.3370813374071
 35
0.0
 40
0.0
1001
ACAD
1000
DSTYLE
1002
{
1070
   288
1070
     1
1070
   345
1005
5F5E
1070
   346
1005
5F5E
1070
   347
1005
5F5E
1002
}
1001
ACAD_DSTYLE_DIMRADIAL_EXTENSION
1070
   387
1070
     1
1070
   388
1040
3.141592653589792
1070
   390
1040
4.712388980384688
  0
DIMENSION
  5
78BA
330
5F6E
100
AcDbEntity
  8
标注
100
AcDbDimension
  2
*D75
 10
1107.380336452877
 20
139.7097519150827
 30
0.0
 11
1108.066615641502
 21
140.5996201438678
 31
0.0
 70
   164
 71
     5
 42
0.3936999999998534
  3
副本STANDARD
100
AcDbRadialDimension
 15
1107.042408335604
 25
139.507751228064
 35
0.0
 40
0.0
1001
ACAD
1000
DSTYLE
1002
{
1070
   288
1070
     1
1070
   345
1005
5F5E
1070
   346
1005
5F5E
1070
   347
1005
5F5E
1002
}
1001
ACAD_DSTYLE_DIMRADIAL_EXTENSION
1070
   387
1070
     1
1070
   388
1040
3.141592653589792
1070
   390
1040
4.712388980384688
  0
DIMENSION
  5
78C4
330
5F6E
100
AcDbEntity
  8
标注
100
AcDbDimension
  2
*D76
 10
1107.380336452877
 20
170.5496071553412
 30
0.0
 11
1108.168927816196
 21
171.2974778632309
 31
0.0
 70
   164
 71
     5
 42
0.3936999999998534
  3
副本STANDARD
100
AcDbRadialDimension
 15
1107.026632538933
 25
170.3767105641069
 35
0.0
 40
0.0
1001
ACAD
1000
DSTYLE
1002
{
1070
   288
1070
     1
1070
   345
1005
5F5E
1070
   346
1005
5F5E
1070
   347
1005
5F5E
1002
}
1001
ACAD_DSTYLE_DIMRADIAL_EXTENSION
1070
   387
1070
     1
1070
   388
1040
3.141592653589792
1070
   390
1040
4.693156543394264
  0
ENDSEC
  0
SECTION
  2
OBJECTS
  0
DICTIONARY
  5
5F06
330
0
100
AcDbDictionary
281
     1
  3
ACAD_2007HEADERVARS_RT
350
795D
  3
ACAD_COLOR
350
5F64
  3
ACAD_GROUP
350
5F07
  3
ACAD_LAYOUT
350
5F63
  3
ACAD_MATERIAL
350
5F0A
  3
ACAD_MLEADERSTYLE
350
5F67
  3
ACAD_MLINESTYLE
350
5F60
  3
ACAD_PLOTSETTINGS
350
5F62
  3
ACAD_PLOTSTYLENAME
350
5F08
  3
ACAD_SCALELIST
350
5F34
  3
ACAD_TABLESTYLE
350
5F65
  3
ACAD_VISUALSTYLE
350
5F23
  3
ACDB_RECOMPOSE_DATA
350
6F70
  3
AcDbVariableDictionary
350
6102
  3
DWGPROPS
350
795C
  3
lxx_dict
350
60F2
  0
DICTIONARY
  5
61B7
330
5EFC
100
AcDbDictionary
280
     1
281
     1
  3
ACAD_LAYERSTATES
360
61B8
  0
DICTIONARY
  5
60F4
330
5F56
100
AcDbDictionary
280
     1
281
     1
  3
ADSK_XREC_LAYER_RECONCILED
360
60F5
  0
DICTIONARY
  5
60F6
330
5F72
100
AcDbDictionary
280
     1
281
     1
  3
ADSK_XREC_LAYER_RECONCILED
360
60F7
  0
DICTIONARY
  5
60F8
330
5F7D
100
AcDbDictionary
280
     1
281
     1
  3
ADSK_XREC_LAYER_RECONCILED
360
60F9
  0
DICTIONARY
  5
60FA
330
5F7E
100
AcDbDictionary
280
     1
281
     1
  3
ADSK_XREC_LAYER_RECONCILED
360
60FB
  0
DICTIONARY
  5
60FC
330
5F80
100
AcDbDictionary
280
     1
281
     1
  3
ADSK_XREC_LAYER_RECONCILED
360
60FD
  0
DICTIONARY
  5
61B2
330
61B1
100
AcDbDictionary
280
     1
281
     1
  0
DICTIONARY
  5
6B9D
330
6B9C
100
AcDbDictionary
280
     1
281
     1
  0
DICTIONARY
  5
654F
330
5F6E
100
AcDbDictionary
280
     1
281
     1
  3
ACAD_SORTENTS
360
6550
  0
DICTIONARY
  5
795D
102
{ACAD_REACTORS
330
5F06
102
}
330
5F06
100
AcDbDictionary
281
     1
  3
DIMFXL
350
795E
  3
DIMJOGANG
350
795F
  3
DIMLTEX1
350
7961
  3
DIMLTEX2
350
7962
  3
DIMLTYPE
350
7960
  0
DICTIONARY
  5
5F64
102
{ACAD_REACTORS
330
5F06
102
}
330
5F06
100
AcDbDictionary
281
     1
  0
DICTIONARY
  5
5F07
102
{ACAD_REACTORS
330
5F06
102
}
330
5F06
100
AcDbDictionary
281
     1
  0
DICTIONARY
  5
5F63
102
{ACAD_REACTORS
330
5F06
102
}
330
5F06
100
AcDbDictionary
281
     1
  3
Model
350
5F71
  3
布局1
350
5F6D
  0
DICTIONARY
  5
5F0A
102
{ACAD_REACTORS
330
5F06
102
}
330
5F06
100
AcDbDictionary
281
     1
  3
ByBlock
350
5F13
  3
ByLayer
350
5F0B
  3
Global
350
5F1B
  0
DICTIONARY
  5
5F67
102
{ACAD_REACTORS
330
5F06
102
}
330
5F06
100
AcDbDictionary
281
     1
  3
Standard
350
5F68
  0
DICTIONARY
  5
5F60
102
{ACAD_REACTORS
330
5F06
102
}
330
5F06
100
AcDbDictionary
281
     1
  3
Standard
350
5F61
  0
DICTIONARY
  5
5F62
102
{ACAD_REACTORS
330
5F06
102
}
330
5F06
100
AcDbDictionary
281
     1
  0
ACDBDICTIONARYWDFLT
  5
5F08
102
{ACAD_REACTORS
330
5F06
102
}
330
5F06
100
AcDbDictionary
281
     1
  3
Normal
350
5F09
100
AcDbDictionaryWithDefault
340
5F09
  0
DICTIONARY
  5
5F34
102
{ACAD_REACTORS
330
5F06
102
}
330
5F06
100
AcDbDictionary
281
     1
  3
A0
350
5F35
  3
A1
350
5F36
  3
A2
350
5F37
  3
A3
350
5F38
  3
A4
350
5F39
  3
A5
350
5F3A
  3
A6
350
5F3B
  3
A7
350
5F3C
  3
A8
350
5F3D
  3
A9
350
5F3E
  3
B0
350
5F3F
  3
B1
350
5F40
  3
B2
350
5F41
  3
B3
350
5F42
  3
B4
350
5F43
  3
B5
350
5F44
  3
B6
350
5F45
  3
B7
350
5F46
  3
B8
350
5F47
  3
B9
350
5F48
  3
C0
350
5F49
  3
C1
350
5F4A
  3
C2
350
5F4B
  3
C3
350
5F4C
  3
C4
350
5F4D
  3
C5
350
5F4E
  3
C6
350
5F4F
  3
C7
350
5F50
  3
C8
350
5F51
  3
C9
350
5F52
  3
D0
350
5F53
  3
D1
350
5F54
  3
D2
350
5F55
  0
DICTIONARY
  5
5F65
102
{ACAD_REACTORS
330
5F06
102
}
330
5F06
100
AcDbDictionary
281
     1
  3
Standard
350
5F66
  0
DICTIONARY
  5
5F23
102
{ACAD_REACTORS
330
5F06
102
}
330
5F06
100
AcDbDictionary
281
     1
  3
2dWireframe
350
5F29
  3
3D Hidden
350
5F2B
  3
3dWireframe
350
5F2A
  3
Basic
350
5F28
  3
Brighten
350
5F2F
  3
ColorChange
350
5F33
  3
Conceptual
350
5F2C
  3
Dim
350
5F2E
  3
Facepattern
350
5F32
  3
Flat
350
5F24
  3
FlatWithEdges
350
5F25
  3
Gouraud
350
5F26
  3
GouraudWithEdges
350
5F27
  3
Linepattern
350
5F31
  3
Realistic
350
5F2D
  3
Thicken
350
5F30
  0
XRECORD
  5
6F70
102
{ACAD_REACTORS
330
5F06
102
}
330
5F06
100
AcDbXrecord
280
     1
 90
        1
330
5F66
  0
DICTIONARY
  5
6102
102
{ACAD_REACTORS
330
5F06
102
}
330
5F06
100
AcDbDictionary
281
     1
  3
CANNOSCALE
350
6105
  3
CMLEADERSTYLE
350
6104
  3
CTABLESTYLE
350
6103
  3
DIMASSOC
350
6108
  3
INDEXCTL
350
6107
  3
SORTENTS
350
6106
  0
XRECORD
  5
795C
102
{ACAD_REACTORS
330
5F06
102
}
330
5F06
100
AcDbXrecord
280
     1
  1
DWGPROPS COOKIE
  2

  3

  4

  6

  7

  8
Administrator
  9

300
=
301
=
302
=
303
=
304
=
305
=
306
=
307
=
308
=
309
=
 40
0.6439536458333334
 41
2455434.724808658
 42
2458565.35590485
  1

 90
        0
  0
DICTIONARY
  5
60F2
102
{ACAD_REACTORS
330
5F06
102
}
330
5F06
100
AcDbDictionary
281
     1
  3
lxx_dimth
350
60F3
  0
DICTIONARY
  5
61B8
102
{ACAD_REACTORS
330
61B7
102
}
330
61B7
100
AcDbDictionary
281
     1
  0
XRECORD
  5
60F5
102
{ACAD_REACTORS
330
60F4
102
}
330
60F4
100
AcDbXrecord
280
     1
290
     1
  0
XRECORD
  5
60F7
102
{ACAD_REACTORS
330
60F6
102
}
330
60F6
100
AcDbXrecord
280
     1
290
     1
  0
XRECORD
  5
60F9
102
{ACAD_REACTORS
330
60F8
102
}
330
60F8
100
AcDbXrecord
280
     1
290
     1
  0
XRECORD
  5
60FB
102
{ACAD_REACTORS
330
60FA
102
}
330
60FA
100
AcDbXrecord
280
     1
290
     1
  0
XRECORD
  5
60FD
102
{ACAD_REACTORS
330
60FC
102
}
330
60FC
100
AcDbXrecord
280
     1
290
     1
  0
SORTENTSTABLE
  5
6550
102
{ACAD_REACTORS
330
654F
102
}
330
654F
100
AcDbSortentsTable
330
5F6E
  0
XRECORD
  5
795E
102
{ACAD_REACTORS
330
795D
102
}
330
795D
100
AcDbXrecord
280
     1
 40
1.25
  0
XRECORD
  5
795F
102
{ACAD_REACTORS
330
795D
102
}
330
795D
100
AcDbXrecord
280
     1
 40
1.570796326794896
  0
XRECORD
  5
7961
102
{ACAD_REACTORS
330
795D
102
}
330
795D
100
AcDbXrecord
280
     1
340
5F5E
  0
XRECORD
  5
7962
102
{ACAD_REACTORS
330
795D
102
}
330
795D
100
AcDbXrecord
280
     1
340
5F5E
  0
XRECORD
  5
7960
102
{ACAD_REACTORS
330
795D
102
}
330
795D
100
AcDbXrecord
280
     1
340
5F5D
  0
LAYOUT
  5
5F71
102
{ACAD_XDICTIONARY
360
7966
102
}
102
{ACAD_REACTORS
330
5F63
102
}
330
5F63
100
AcDbPlotSettings
  1

  2
\\192.168.1.64\Canon LBP2900
  4
A4
  6

 40
5.873749732971191
 41
6.805061340332031
 42
5.873748779296875
 43
4.857757568359375
 44
209.9733276367186
 45
296.9259948730469
 46
0.0
 47
0.0
 48
0.0
 49
0.0
140
0.0
141
0.0
142
1.0
143
15.879357507287
 70
 11952
 72
     0
 73
     1
 74
     0
  7

 75
     0
147
0.0629748401055334
148
-27226.80690415248
149
-2266.514499453142
100
AcDbLayout
  1
Model
 70
     1
 71
     0
 10
0.0
 20
0.0
 11
12.0
 21
9.0
 12
0.0
 22
0.0
 32
0.0
 14
0.0
 24
0.0
 34
0.0
 15
0.0
 25
0.0
 35
0.0
146
0.0
 13
0.0
 23
0.0
 33
0.0
 16
1.0
 26
0.0
 36
0.0
 17
0.0
 27
1.0
 37
0.0
 76
     0
330
5F6E
331
5F73
1001
ACAD_PSEXT
1000
\\192.168.1.64\Canon LBP2900
1000
Canon LBP2900
1000
\\192.168.1.64
1000

1070
     0
  0
LAYOUT
  5
5F6D
102
{ACAD_XDICTIONARY
360
7964
102
}
102
{ACAD_REACTORS
330
5F63
102
}
330
5F63
100
AcDbPlotSettings
  1

  2
\\192.168.1.64\Canon LBP2900
  4

  6

 40
0.0
 41
0.0
 42
0.0
 43
0.0
 44
0.0
 45
0.0
 46
0.0
 47
0.0
 48
0.0
 49
0.0
140
0.0
141
0.0
142
1.0
143
1.0
 70
   688
 72
     0
 73
     0
 74
     5
  7

 75
    16
147
1.0
148
0.0
149
0.0
100
AcDbLayout
  1
布局1
 70
     1
 71
     1
 10
0.0
 20
0.0
 11
12.0
 21
9.0
 12
0.0
 22
0.0
 32
0.0
 14
1.000000000000000E+20
 24
1.000000000000000E+20
 34
1.000000000000000E+20
 15
-1.000000000000000E+20
 25
-1.000000000000000E+20
 35
-1.000000000000000E+20
146
0.0
 13
0.0
 23
0.0
 33
0.0
 16
1.0
 26
0.0
 36
0.0
 17
0.0
 27
1.0
 37
0.0
 76
     0
330
5F6A
  0
MATERIAL
  5
5F13
102
{ACAD_XDICTIONARY
360
5F14
102
}
102
{ACAD_REACTORS
330
5F0A
102
}
330
5F0A
100
AcDbMaterial
  1
ByBlock
 72
     0
 43
0.0208333333333333
 43
0.0
 43
0.0
 43
0.0
 43
0.0
 43
0.0208333333333333
 43
0.0
 43
0.0
 43
0.0
 43
0.0
 43
1.0
 43
0.0
 43
0.0
 43
0.0
 43
0.0
 43
1.0
 77
     0
 47
0.0208333333333333
 47
0.0
 47
0.0
 47
0.0
 47
0.0
 47
0.0208333333333333
 47
0.0
 47
0.0
 47
0.0
 47
0.0
 47
1.0
 47
0.0
 47
0.0
 47
0.0
 47
0.0
 47
1.0
171
     0
 49
0.0208333333333333
 49
0.0
 49
0.0
 49
0.0
 49
0.0
 49
0.0208333333333333
 49
0.0
 49
0.0
 49
0.0
 49
0.0
 49
1.0
 49
0.0
 49
0.0
 49
0.0
 49
0.0
 49
1.0
175
     0
142
0.0208333333333333
142
0.0
142
0.0
142
0.0
142
0.0
142
0.0208333333333333
142
0.0
142
0.0
142
0.0
142
0.0
142
1.0
142
0.0
142
0.0
142
0.0
142
0.0
142
1.0
179
     0
144
0.0208333333333333
144
0.0
144
0.0
144
0.0
144
0.0
144
0.0208333333333333
144
0.0
144
0.0
144
0.0
144
0.0
144
1.0
144
0.0
144
0.0
144
0.0
144
0.0
144
1.0
147
0.0208333333333333
147
0.0
147
0.0
147
0.0
147
0.0
147
0.0208333333333333
147
0.0
147
0.0
147
0.0
147
0.0
147
1.0
147
0.0
147
0.0
147
0.0
147
0.0
147
1.0
  0
MATERIAL
  5
5F0B
102
{ACAD_XDICTIONARY
360
5F0C
102
}
102
{ACAD_REACTORS
330
5F0A
102
}
330
5F0A
100
AcDbMaterial
  1
ByLayer
 72
     0
 43
0.0208333333333333
 43
0.0
 43
0.0
 43
0.0
 43
0.0
 43
0.0208333333333333
 43
0.0
 43
0.0
 43
0.0
 43
0.0
 43
1.0
 43
0.0
 43
0.0
 43
0.0
 43
0.0
 43
1.0
 77
     0
 47
0.0208333333333333
 47
0.0
 47
0.0
 47
0.0
 47
0.0
 47
0.0208333333333333
 47
0.0
 47
0.0
 47
0.0
 47
0.0
 47
1.0
 47
0.0
 47
0.0
 47
0.0
 47
0.0
 47
1.0
171
     0
 49
0.0208333333333333
 49
0.0
 49
0.0
 49
0.0
 49
0.0
 49
0.0208333333333333
 49
0.0
 49
0.0
 49
0.0
 49
0.0
 49
1.0
 49
0.0
 49
0.0
 49
0.0
 49
0.0
 49
1.0
175
     0
142
0.0208333333333333
142
0.0
142
0.0
142
0.0
142
0.0
142
0.0208333333333333
142
0.0
142
0.0
142
0.0
142
0.0
142
1.0
142
0.0
142
0.0
142
0.0
142
0.0
142
1.0
179
     0
144
0.0208333333333333
144
0.0
144
0.0
144
0.0
144
0.0
144
0.0208333333333333
144
0.0
144
0.0
144
0.0
144
0.0
144
1.0
144
0.0
144
0.0
144
0.0
144
0.0
144
1.0
147
0.0208333333333333
147
0.0
147
0.0
147
0.0
147
0.0
147
0.0208333333333333
147
0.0
147
0.0
147
0.0
147
0.0
147
1.0
147
0.0
147
0.0
147
0.0
147
0.0
147
1.0
  0
MATERIAL
  5
5F1B
102
{ACAD_XDICTIONARY
360
5F1C
102
}
102
{ACAD_REACTORS
330
5F0A
102
}
330
5F0A
100
AcDbMaterial
  1
Global
 72
     0
 43
0.0208333333333333
 43
0.0
 43
0.0
 43
0.0
 43
0.0
 43
0.0208333333333333
 43
0.0
 43
0.0
 43
0.0
 43
0.0
 43
1.0
 43
0.0
 43
0.0
 43
0.0
 43
0.0
 43
1.0
 77
     0
 47
0.0208333333333333
 47
0.0
 47
0.0
 47
0.0
 47
0.0
 47
0.0208333333333333
 47
0.0
 47
0.0
 47
0.0
 47
0.0
 47
1.0
 47
0.0
 47
0.0
 47
0.0
 47
0.0
 47
1.0
171
     0
 49
0.0208333333333333
 49
0.0
 49
0.0
 49
0.0
 49
0.0
 49
0.0208333333333333
 49
0.0
 49
0.0
 49
0.0
 49
0.0
 49
1.0
 49
0.0
 49
0.0
 49
0.0
 49
0.0
 49
1.0
175
     0
142
0.0208333333333333
142
0.0
142
0.0
142
0.0
142
0.0
142
0.0208333333333333
142
0.0
142
0.0
142
0.0
142
0.0
142
1.0
142
0.0
142
0.0
142
0.0
142
0.0
142
1.0
179
     0
144
0.0208333333333333
144
0.0
144
0.0
144
0.0
144
0.0
144
0.0208333333333333
144
0.0
144
0.0
144
0.0
144
0.0
144
1.0
144
0.0
144
0.0
144
0.0
144
0.0
144
1.0
147
0.0208333333333333
147
0.0
147
0.0
147
0.0
147
0.0
147
0.0208333333333333
147
0.0
147
0.0
147
0.0
147
0.0
147
1.0
147
0.0
147
0.0
147
0.0
147
0.0
147
1.0
  0
MLEADERSTYLE
  5
5F68
102
{ACAD_REACTORS
330
5F67
102
}
330
5F67
100
AcDbMLeaderStyle
170
     2
171
     1
172
     0
 90
        2
 40
0.0
 41
0.0
173
     1
 91
-1056964608
340
5F5C
 92
       -2
290
     1
 42
0.09
291
     1
 43
0.36
  3
Standard
 44
0.18
300

342
5F57
174
     1
178
     6
175
     1
176
     0
 93
-1056964608
 45
0.18
292
     0
297
     0
 46
0.18
 94
-1056964608
 47
1.0
 49
1.0
140
1.0
293
     1
141
0.0
294
     1
177
     0
142
1.0
295
     0
296
     0
143
0.125
1001
ACAD_MLEADERVER
1070
     2
  0
MLINESTYLE
  5
5F61
102
{ACAD_REACTORS
330
5F60
102
}
330
5F60
100
AcDbMlineStyle
  2
STANDARD
 70
     0
  3

 62
   256
 51
90.0
 52
90.0
 71
     2
 49
0.5
 62
   256
  6
BYLAYER
 49
-0.5
 62
   256
  6
BYLAYER
  0
ACDBPLACEHOLDER
  5
5F09
102
{ACAD_REACTORS
330
5F08
102
}
330
5F08
  0
SCALE
  5
5F35
102
{ACAD_REACTORS
330
5F34
102
}
330
5F34
100
AcDbScale
 70
     0
300
1:1
140
1.0
141
1.0
290
     1
  0
SCALE
  5
5F36
102
{ACAD_REACTORS
330
5F34
102
}
330
5F34
100
AcDbScale
 70
     0
300
1:2
140
1.0
141
2.0
290
     0
  0
SCALE
  5
5F37
102
{ACAD_REACTORS
330
5F34
102
}
330
5F34
100
AcDbScale
 70
     0
300
1:4
140
1.0
141
4.0
290
     0
  0
SCALE
  5
5F38
102
{ACAD_REACTORS
330
5F34
102
}
330
5F34
100
AcDbScale
 70
     0
300
1:5
140
1.0
141
5.0
290
     0
  0
SCALE
  5
5F39
102
{ACAD_REACTORS
330
5F34
102
}
330
5F34
100
AcDbScale
 70
     0
300
1:8
140
1.0
141
8.0
290
     0
  0
SCALE
  5
5F3A
102
{ACAD_REACTORS
330
5F34
102
}
330
5F34
100
AcDbScale
 70
     0
300
1:10
140
1.0
141
10.0
290
     0
  0
SCALE
  5
5F3B
102
{ACAD_REACTORS
330
5F34
102
}
330
5F34
100
AcDbScale
 70
     0
300
1:16
140
1.0
141
16.0
290
     0
  0
SCALE
  5
5F3C
102
{ACAD_REACTORS
330
5F34
102
}
330
5F34
100
AcDbScale
 70
     0
300
1:20
140
1.0
141
20.0
290
     0
  0
SCALE
  5
5F3D
102
{ACAD_REACTORS
330
5F34
102
}
330
5F34
100
AcDbScale
 70
     0
300
1:30
140
1.0
141
30.0
290
     0
  0
SCALE
  5
5F3E
102
{ACAD_REACTORS
330
5F34
102
}
330
5F34
100
AcDbScale
 70
     0
300
1:40
140
1.0
141
40.0
290
     0
  0
SCALE
  5
5F3F
102
{ACAD_REACTORS
330
5F34
102
}
330
5F34
100
AcDbScale
 70
     0
300
1:50
140
1.0
141
50.0
290
     0
  0
SCALE
  5
5F40
102
{ACAD_REACTORS
330
5F34
102
}
330
5F34
100
AcDbScale
 70
     0
300
1:100
140
1.0
141
100.0
290
     0
  0
SCALE
  5
5F41
102
{ACAD_REACTORS
330
5F34
102
}
330
5F34
100
AcDbScale
 70
     0
300
2:1
140
2.0
141
1.0
290
     0
  0
SCALE
  5
5F42
102
{ACAD_REACTORS
330
5F34
102
}
330
5F34
100
AcDbScale
 70
     0
300
4:1
140
4.0
141
1.0
290
     0
  0
SCALE
  5
5F43
102
{ACAD_REACTORS
330
5F34
102
}
330
5F34
100
AcDbScale
 70
     0
300
8:1
140
8.0
141
1.0
290
     0
  0
SCALE
  5
5F44
102
{ACAD_REACTORS
330
5F34
102
}
330
5F34
100
AcDbScale
 70
     0
300
10:1
140
10.0
141
1.0
290
     0
  0
SCALE
  5
5F45
102
{ACAD_REACTORS
330
5F34
102
}
330
5F34
100
AcDbScale
 70
     0
300
100:1
140
100.0
141
1.0
290
     0
  0
SCALE
  5
5F46
102
{ACAD_REACTORS
330
5F34
102
}
330
5F34
100
AcDbScale
 70
     0
300
1/128" = 1'-0"
140
0.0078125
141
12.0
290
     0
  0
SCALE
  5
5F47
102
{ACAD_REACTORS
330
5F34
102
}
330
5F34
100
AcDbScale
 70
     0
300
1/64" = 1'-0"
140
0.015625
141
12.0
290
     0
  0
SCALE
  5
5F48
102
{ACAD_REACTORS
330
5F34
102
}
330
5F34
100
AcDbScale
 70
     0
300
1/32" = 1'-0"
140
0.03125
141
12.0
290
     0
  0
SCALE
  5
5F49
102
{ACAD_REACTORS
330
5F34
102
}
330
5F34
100
AcDbScale
 70
     0
300
1/16" = 1'-0"
140
0.0625
141
12.0
290
     0
  0
SCALE
  5
5F4A
102
{ACAD_REACTORS
330
5F34
102
}
330
5F34
100
AcDbScale
 70
     0
300
3/32" = 1'-0"
140
0.09375
141
12.0
290
     0
  0
SCALE
  5
5F4B
102
{ACAD_REACTORS
330
5F34
102
}
330
5F34
100
AcDbScale
 70
     0
300
1/8" = 1'-0"
140
0.125
141
12.0
290
     0
  0
SCALE
  5
5F4C
102
{ACAD_REACTORS
330
5F34
102
}
330
5F34
100
AcDbScale
 70
     0
300
3/16" = 1'-0"
140
0.1875
141
12.0
290
     0
  0
SCALE
  5
5F4D
102
{ACAD_REACTORS
330
5F34
102
}
330
5F34
100
AcDbScale
 70
     0
300
1/4" = 1'-0"
140
0.25
141
12.0
290
     0
  0
SCALE
  5
5F4E
102
{ACAD_REACTORS
330
5F34
102
}
330
5F34
100
AcDbScale
 70
     0
300
3/8" = 1'-0"
140
0.375
141
12.0
290
     0
  0
SCALE
  5
5F4F
102
{ACAD_REACTORS
330
5F34
102
}
330
5F34
100
AcDbScale
 70
     0
300
1/2" = 1'-0"
140
0.5
141
12.0
290
     0
  0
SCALE
  5
5F50
102
{ACAD_REACTORS
330
5F34
102
}
330
5F34
100
AcDbScale
 70
     0
300
3/4" = 1'-0"
140
0.75
141
12.0
290
     0
  0
SCALE
  5
5F51
102
{ACAD_REACTORS
330
5F34
102
}
330
5F34
100
AcDbScale
 70
     0
300
1" = 1'-0"
140
1.0
141
12.0
290
     0
  0
SCALE
  5
5F52
102
{ACAD_REACTORS
330
5F34
102
}
330
5F34
100
AcDbScale
 70
     0
300
1-1/2" = 1'-0"
140
1.5
141
12.0
290
     0
  0
SCALE
  5
5F53
102
{ACAD_REACTORS
330
5F34
102
}
330
5F34
100
AcDbScale
 70
     0
300
3" = 1'-0"
140
3.0
141
12.0
290
     0
  0
SCALE
  5
5F54
102
{ACAD_REACTORS
330
5F34
102
}
330
5F34
100
AcDbScale
 70
     0
300
6" = 1'-0"
140
6.0
141
12.0
290
     0
  0
SCALE
  5
5F55
102
{ACAD_REACTORS
330
5F34
102
}
330
5F34
100
AcDbScale
 70
     0
300
1'-0" = 1'-0"
140
12.0
141
12.0
290
     0
  0
TABLESTYLE
  5
5F66
102
{ACAD_XDICTIONARY
360
6F6E
102
}
102
{ACAD_REACTORS
330
5F65
102
}
330
5F65
100
AcDbTableStyle
  3
Standard
 70
     0
 71
     0
 40
0.06
 41
0.06
280
     0
281
     0
  7
STANDARD
140
0.18
170
     2
 62
     0
 63
     7
283
     0
274
    -2
284
     1
 64
     0
275
    -2
285
     1
 65
     0
276
    -2
286
     1
 66
     0
277
    -2
287
     1
 67
     0
278
    -2
288
     1
 68
     0
279
    -2
289
     1
 69
     0
  7
STANDARD
140
0.25
170
     5
 62
     0
 63
     7
283
     0
274
    -2
284
     1
 64
     0
275
    -2
285
     1
 65
     0
276
    -2
286
     1
 66
     0
277
    -2
287
     1
 67
     0
278
    -2
288
     1
 68
     0
279
    -2
289
     1
 69
     0
  7
STANDARD
140
0.18
170
     5
 62
     0
 63
     7
283
     0
274
    -2
284
     1
 64
     0
275
    -2
285
     1
 65
     0
276
    -2
286
     1
 66
     0
277
    -2
287
     1
 67
     0
278
    -2
288
     1
 68
     0
279
    -2
289
     1
 69
     0
  0
VISUALSTYLE
  5
5F29
102
{ACAD_REACTORS
330
5F23
102
}
330
5F23
100
AcDbVisualStyle
  2
2dWireframe
 70
     4
 71
     0
 72
     2
 73
     0
 90
        0
 40
-0.6
 41
-30.0
 62
     5
 63
     7
 74
     1
 91
        4
 64
     7
 65
   257
 75
     1
175
     1
 42
1.0
 92
        0
 66
   257
 43
1.0
 76
     1
 77
     6
 78
     2
 67
     7
 79
     5
170
     0
171
     0
290
     0
174
     0
 93
        1
 44
0.0
173
     0
291
     0
 45
0.0
1001
ACAD
1000
AcDbSavedByObjectVersion
1070
     0
1000
AcDbSavedByObjectVersion
1070
     0
1000
AcDbSavedByObjectVersion
1070
     0
  0
VISUALSTYLE
  5
5F2B
102
{ACAD_REACTORS
330
5F23
102
}
330
5F23
100
AcDbVisualStyle
  2
3D Hidden
 70
     6
 71
     1
 72
     2
 73
     2
 90
        0
 40
-0.6
 41
-30.0
 62
     5
 63
     7
 74
     2
 91
        2
 64
     7
 65
   257
 75
     2
175
     1
 42
40.0
 92
        0
 66
   257
 43
1.0
 76
     1
 77
     6
 78
     2
 67
     7
 79
     3
170
     0
171
     0
290
     0
174
     0
 93
        1
 44
0.0
173
     0
291
     0
 45
0.0
1001
ACAD
1000
AcDbSavedByObjectVersion
1070
     0
1000
AcDbSavedByObjectVersion
1070
     0
1000
AcDbSavedByObjectVersion
1070
     0
  0
VISUALSTYLE
  5
5F2A
102
{ACAD_REACTORS
330
5F23
102
}
330
5F23
100
AcDbVisualStyle
  2
3dWireframe
 70
     5
 71
     0
 72
     2
 73
     0
 90
        0
 40
-0.6
 41
-30.0
 62
     5
 63
     7
 74
     1
 91
        4
 64
     7
 65
   257
 75
     1
175
     1
 42
1.0
 92
        0
 66
   257
 43
1.0
 76
     1
 77
     6
 78
     2
 67
     7
 79
     5
170
     0
171
     0
290
     0
174
     0
 93
        1
 44
0.0
173
     0
291
     0
 45
0.0
1001
ACAD
1000
AcDbSavedByObjectVersion
1070
     0
1000
AcDbSavedByObjectVersion
1070
     0
1000
AcDbSavedByObjectVersion
1070
     0
  0
VISUALSTYLE
  5
5F28
102
{ACAD_REACTORS
330
5F23
102
}
330
5F23
100
AcDbVisualStyle
  2
Basic
 70
     7
 71
     1
 72
     0
 73
     1
 90
        0
 40
-0.6
 41
-30.0
 62
     5
 63
     7
 74
     0
 91
        4
 64
     7
 65
   257
 75
     1
175
     1
 42
1.0
 92
        8
 66
     7
 43
1.0
 76
     1
 77
     6
 78
     2
 67
     7
 79
     5
170
     0
171
     0
290
     0
174
     0
 93
        1
 44
0.0
173
     0
291
     1
 45
0.0
1001
ACAD
1000
AcDbSavedByObjectVersion
1070
     0
1000
AcDbSavedByObjectVersion
1070
     0
1000
AcDbSavedByObjectVersion
1070
     0
  0
VISUALSTYLE
  5
5F2F
102
{ACAD_REACTORS
330
5F23
102
}
330
5F23
100
AcDbVisualStyle
  2
Brighten
 70
    12
 71
     2
 72
     2
 73
     0
 90
        0
 40
-0.6
 41
-30.0
 62
     5
 63
     7
 74
     1
 91
        4
 64
     7
 65
   257
 75
     1
175
     1
 42
1.0
 92
        8
 66
     7
 43
1.0
 76
     1
 77
     6
 78
     2
 67
     7
 79
     5
170
     0
171
     0
290
     0
174
     0
 93
        1
 44
50.0
173
     0
291
     1
 45
0.0
1001
ACAD
1000
AcDbSavedByObjectVersion
1070
     0
1000
AcDbSavedByObjectVersion
1070
     0
1000
AcDbSavedByObjectVersion
1070
     0
  0
VISUALSTYLE
  5
5F33
102
{ACAD_REACTORS
330
5F23
102
}
330
5F23
100
AcDbVisualStyle
  2
ColorChange
 70
    16
 71
     2
 72
     2
 73
     3
 90
        0
 40
-0.6
 41
-30.0
 62
     5
 63
     8
 74
     1
 91
        4
 64
     7
 65
   257
 75
     1
175
     1
 42
1.0
 92
        8
 66
     8
 43
1.0
 76
     1
 77
     6
 78
     2
 67
     7
 79
     5
170
     0
171
     0
290
     0
174
     0
 93
        1
 44
0.0
173
     0
291
     1
 45
0.0
1001
ACAD
1000
AcDbSavedByObjectVersion
1070
     0
1000
AcDbSavedByObjectVersion
1070
     0
1000
AcDbSavedByObjectVersion
1070
     0
  0
VISUALSTYLE
  5
5F2C
102
{ACAD_REACTORS
330
5F23
102
}
330
5F23
100
AcDbVisualStyle
  2
Conceptual
 70
     9
 71
     3
 72
     2
 73
     0
 90
        0
 40
-0.6
 41
-30.0
 62
     5
 63
     7
 74
     2
 91
        2
 64
     7
 65
   257
 75
     1
175
     1
 42
40.0
 92
        8
 66
     7
 43
1.0
 76
     1
 77
     6
 78
     2
 67
     7
 79
     3
170
     0
171
     0
290
     0
174
     0
 93
        1
 44
0.0
173
     0
291
     0
 45
0.0
1001
ACAD
1000
AcDbSavedByObjectVersion
1070
     0
1000
AcDbSavedByObjectVersion
1070
     0
1000
AcDbSavedByObjectVersion
1070
     0
  0
VISUALSTYLE
  5
5F2E
102
{ACAD_REACTORS
330
5F23
102
}
330
5F23
100
AcDbVisualStyle
  2
Dim
 70
    11
 71
     2
 72
     2
 73
     0
 90
        0
 40
-0.6
 41
-30.0
 62
     5
 63
     7
 74
     1
 91
        4
 64
     7
 65
   257
 75
     1
175
     1
 42
1.0
 92
        8
 66
     7
 43
1.0
 76
     1
 77
     6
 78
     2
 67
     7
 79
     5
170
     0
171
     0
290
     0
174
     0
 93
        1
 44
-50.0
173
     0
291
     1
 45
0.0
1001
ACAD
1000
AcDbSavedByObjectVersion
1070
     0
1000
AcDbSavedByObjectVersion
1070
     0
1000
AcDbSavedByObjectVersion
1070
     0
  0
VISUALSTYLE
  5
5F32
102
{ACAD_REACTORS
330
5F23
102
}
330
5F23
100
AcDbVisualStyle
  2
Facepattern
 70
    15
 71
     2
 72
     2
 73
     0
 90
        0
 40
-0.6
 41
-30.0
 62
     5
 63
     7
 74
     1
 91
        4
 64
     7
 65
   257
 75
     1
175
     1
 42
1.0
 92
        8
 66
     7
 43
1.0
 76
     1
 77
     6
 78
     2
 67
     7
 79
     5
170
     0
171
     0
290
     0
174
     0
 93
        1
 44
0.0
173
     0
291
     1
 45
0.0
1001
ACAD
1000
AcDbSavedByObjectVersion
1070
     0
1000
AcDbSavedByObjectVersion
1070
     0
1000
AcDbSavedByObjectVersion
1070
     0
  0
VISUALSTYLE
  5
5F24
102
{ACAD_REACTORS
330
5F23
102
}
330
5F23
100
AcDbVisualStyle
  2
Flat
 70
     0
 71
     2
 72
     1
 73
     1
 90
        2
 40
-0.6
 41
30.0
 62
     5
 63
     7
 74
     0
 91
        4
 64
     7
 65
   257
 75
     1
175
     1
 42
1.0
 92
        8
 66
     7
 43
1.0
 76
     1
 77
     6
 78
     2
 67
     7
 79
     5
170
     0
171
     0
290
     0
174
     0
 93
       13
 44
0.0
173
     0
291
     1
 45
0.0
1001
ACAD
1000
AcDbSavedByObjectVersion
1070
     0
1000
AcDbSavedByObjectVersion
1070
     0
1000
AcDbSavedByObjectVersion
1070
     0
  0
VISUALSTYLE
  5
5F25
102
{ACAD_REACTORS
330
5F23
102
}
330
5F23
100
AcDbVisualStyle
  2
FlatWithEdges
 70
     1
 71
     2
 72
     1
 73
     1
 90
        2
 40
-0.6
 41
30.0
 62
     5
 63
     7
 74
     1
 91
        4
 64
     7
 65
   257
 75
     1
175
     1
 42
1.0
 92
        0
 66
   257
 43
1.0
 76
     1
 77
     6
 78
     2
 67
     7
 79
     5
170
     0
171
     0
290
     0
174
     0
 93
       13
 44
0.0
173
     0
291
     1
 45
0.0
1001
ACAD
1000
AcDbSavedByObjectVersion
1070
     0
1000
AcDbSavedByObjectVersion
1070
     0
1000
AcDbSavedByObjectVersion
1070
     0
  0
VISUALSTYLE
  5
5F26
102
{ACAD_REACTORS
330
5F23
102
}
330
5F23
100
AcDbVisualStyle
  2
Gouraud
 70
     2
 71
     2
 72
     2
 73
     1
 90
        2
 40
-0.6
 41
30.0
 62
     5
 63
     7
 74
     0
 91
        4
 64
     7
 65
   257
 75
     1
175
     1
 42
1.0
 92
        0
 66
     7
 43
1.0
 76
     1
 77
     6
 78
     2
 67
     7
 79
     5
170
     0
171
     0
290
     0
174
     0
 93
       13
 44
0.0
173
     0
291
     1
 45
0.0
1001
ACAD
1000
AcDbSavedByObjectVersion
1070
     0
1000
AcDbSavedByObjectVersion
1070
     0
1000
AcDbSavedByObjectVersion
1070
     0
  0
VISUALSTYLE
  5
5F27
102
{ACAD_REACTORS
330
5F23
102
}
330
5F23
100
AcDbVisualStyle
  2
GouraudWithEdges
 70
     3
 71
     2
 72
     2
 73
     1
 90
        2
 40
-0.6
 41
30.0
 62
     5
 63
     7
 74
     1
 91
        4
 64
     7
 65
   257
 75
     1
175
     1
 42
1.0
 92
        0
 66
   257
 43
1.0
 76
     1
 77
     6
 78
     2
 67
     7
 79
     5
170
     0
171
     0
290
     0
174
     0
 93
       13
 44
0.0
173
     0
291
     1
 45
0.0
1001
ACAD
1000
AcDbSavedByObjectVersion
1070
     0
1000
AcDbSavedByObjectVersion
1070
     0
1000
AcDbSavedByObjectVersion
1070
     0
  0
VISUALSTYLE
  5
5F31
102
{ACAD_REACTORS
330
5F23
102
}
330
5F23
100
AcDbVisualStyle
  2
Linepattern
 70
    14
 71
     2
 72
     2
 73
     0
 90
        0
 40
-0.6
 41
-30.0
 62
     5
 63
     7
 74
     1
 91
        4
 64
     7
 65
   257
 75
     7
175
     7
 42
1.0
 92
        8
 66
     7
 43
1.0
 76
     1
 77
     6
 78
     2
 67
     7
 79
     5
170
     0
171
     0
290
     0
174
     0
 93
        1
 44
0.0
173
     0
291
     1
 45
0.0
1001
ACAD
1000
AcDbSavedByObjectVersion
1070
     0
1000
AcDbSavedByObjectVersion
1070
     0
1000
AcDbSavedByObjectVersion
1070
     0
  0
VISUALSTYLE
  5
5F2D
102
{ACAD_REACTORS
330
5F23
102
}
330
5F23
100
AcDbVisualStyle
  2
Realistic
 70
     8
 71
     2
 72
     2
 73
     0
 90
        0
 40
-0.6
 41
-30.0
 62
     5
 63
     7
 74
     1
 91
        0
 64
     7
 65
   257
 75
     1
175
     1
 42
1.0
 92
        8
 66
     8
 43
1.0
 76
     1
 77
     6
 78
     2
 67
     7
 79
     5
170
     0
171
     0
290
     0
174
     0
 93
       13
 44
0.0
173
     0
291
     0
 45
0.0
1001
ACAD
1000
AcDbSavedByObjectVersion
1070
     0
1000
AcDbSavedByObjectVersion
1070
     0
1000
AcDbSavedByObjectVersion
1070
     0
  0
VISUALSTYLE
  5
5F30
102
{ACAD_REACTORS
330
5F23
102
}
330
5F23
100
AcDbVisualStyle
  2
Thicken
 70
    13
 71
     2
 72
     2
 73
     0
 90
        0
 40
-0.6
 41
-30.0
 62
     5
 63
     7
 74
     1
 91
        4
 64
     7
 65
   257
 75
     1
175
     1
 42
1.0
 92
       12
 66
     7
 43
1.0
 76
     1
 77
     6
 78
     2
 67
     7
 79
     5
170
     0
171
     0
290
     0
174
     0
 93
        1
 44
0.0
173
     0
291
     1
 45
0.0
1001
ACAD
1000
AcDbSavedByObjectVersion
1070
     0
1000
AcDbSavedByObjectVersion
1070
     0
1000
AcDbSavedByObjectVersion
1070
     0
  0
DICTIONARYVAR
  5
6105
102
{ACAD_REACTORS
330
6102
102
}
330
6102
100
DictionaryVariables
280
     0
  1
1:1
  0
DICTIONARYVAR
  5
6104
102
{ACAD_REACTORS
330
6102
102
}
330
6102
100
DictionaryVariables
280
     0
  1
STANDARD
  0
DICTIONARYVAR
  5
6103
102
{ACAD_REACTORS
330
6102
102
}
330
6102
100
DictionaryVariables
280
     0
  1
STANDARD
  0
DICTIONARYVAR
  5
6108
102
{ACAD_REACTORS
330
6102
102
}
330
6102
100
DictionaryVariables
280
     0
  1
1
  0
DICTIONARYVAR
  5
6107
102
{ACAD_REACTORS
330
6102
102
}
330
6102
100
DictionaryVariables
280
     0
  1
0
  0
DICTIONARYVAR
  5
6106
102
{ACAD_REACTORS
330
6102
102
}
330
6102
100
DictionaryVariables
280
     0
  1
127
  0
VLO-VL
  5
60F3
102
{ACAD_REACTORS
330
60F2
102
}
330
60F2
100
vlo_VL
 90
   -64512
 91
       12
 92
        1
 40
2.5
300
(&VLO-R . 0)
  0
DICTIONARY
  5
7966
330
5F71
100
AcDbDictionary
280
     1
281
     1
  3
ACAD_XREC_ROUNDTRIP
360
7967
  0
DICTIONARY
  5
7964
330
5F6D
100
AcDbDictionary
280
     1
281
     1
  3
ACAD_XREC_ROUNDTRIP
360
7965
  0
DICTIONARY
  5
5F14
330
5F13
100
AcDbDictionary
280
     1
281
     1
  3
ACAD_XREC_ROUNDTRIP
360
6F73
  3
BUMPTILE
360
5F16
  3
DIFFUSETILE
360
5F15
  3
OPACITYTILE
360
5F19
  3
REFLECTIONTILE
360
5F18
  3
REFRACTIONTILE
360
5F1A
  3
SPECULARTILE
360
5F17
  0
DICTIONARY
  5
5F0C
330
5F0B
100
AcDbDictionary
280
     1
281
     1
  3
ACAD_XREC_ROUNDTRIP
360
6F72
  3
BUMPTILE
360
5F0E
  3
DIFFUSETILE
360
5F0D
  3
OPACITYTILE
360
5F11
  3
REFLECTIONTILE
360
5F10
  3
REFRACTIONTILE
360
5F12
  3
SPECULARTILE
360
5F0F
  0
DICTIONARY
  5
5F1C
330
5F1B
100
AcDbDictionary
280
     1
281
     1
  3
ACAD_XREC_ROUNDTRIP
360
6F74
  3
BUMPTILE
360
5F1E
  3
DIFFUSETILE
360
5F1D
  3
OPACITYTILE
360
5F21
  3
REFLECTIONTILE
360
5F20
  3
REFRACTIONTILE
360
5F22
  3
SPECULARTILE
360
5F1F
  0
DICTIONARY
  5
6F6E
330
5F66
100
AcDbDictionary
280
     1
281
     1
  3
ACAD_ROUNDTRIP_2008_TABLESTYLE_CELLSTYLEMAP
360
795B
  3
ACAD_XREC_ROUNDTRIP
360
7963
  0
XRECORD
  5
7967
102
{ACAD_REACTORS
330
7966
102
}
330
7966
100
AcDbXrecord
280
     1
102
SHADEPLOT
 70
     0
102
SHADEPLOTRESLEVEL
 70
     2
102
SHADEPLOTCUSTOMDPI
 70
   300
  0
XRECORD
  5
7965
102
{ACAD_REACTORS
330
7964
102
}
330
7964
100
AcDbXrecord
280
     1
102
SHADEPLOT
 70
     0
102
SHADEPLOTRESLEVEL
 70
     2
102
SHADEPLOTCUSTOMDPI
 70
   300
  0
XRECORD
  5
6F73
102
{ACAD_REACTORS
330
5F14
102
}
330
5F14
100
AcDbXrecord
280
     1
102
MATERIAL
148
0.0
149
0.0
149
0.0
 93
        0
 94
      127
282
     0
 72
     0
 77
     0
171
     0
175
     0
179
     0
273
     0
  0
XRECORD
  5
5F16
102
{ACAD_REACTORS
330
5F14
102
}
330
5F14
100
AcDbXrecord
280
     1
270
     1
271
     1
  0
XRECORD
  5
5F15
102
{ACAD_REACTORS
330
5F14
102
}
330
5F14
100
AcDbXrecord
280
     1
270
     1
271
     1
  0
XRECORD
  5
5F19
102
{ACAD_REACTORS
330
5F14
102
}
330
5F14
100
AcDbXrecord
280
     1
270
     1
271
     1
  0
XRECORD
  5
5F18
102
{ACAD_REACTORS
330
5F14
102
}
330
5F14
100
AcDbXrecord
280
     1
270
     1
271
     1
  0
XRECORD
  5
5F1A
102
{ACAD_REACTORS
330
5F14
102
}
330
5F14
100
AcDbXrecord
280
     1
270
     1
271
     1
  0
XRECORD
  5
5F17
102
{ACAD_REACTORS
330
5F14
102
}
330
5F14
100
AcDbXrecord
280
     1
270
     1
271
     1
  0
XRECORD
  5
6F72
102
{ACAD_REACTORS
330
5F0C
102
}
330
5F0C
100
AcDbXrecord
280
     1
102
MATERIAL
148
0.0
149
0.0
149
0.0
 93
        0
 94
      127
282
     0
 72
     0
 77
     0
171
     0
175
     0
179
     0
273
     0
  0
XRECORD
  5
5F0E
102
{ACAD_REACTORS
330
5F0C
102
}
330
5F0C
100
AcDbXrecord
280
     1
270
     1
271
     1
  0
XRECORD
  5
5F0D
102
{ACAD_REACTORS
330
5F0C
102
}
330
5F0C
100
AcDbXrecord
280
     1
270
     1
271
     1
  0
XRECORD
  5
5F11
102
{ACAD_REACTORS
330
5F0C
102
}
330
5F0C
100
AcDbXrecord
280
     1
270
     1
271
     1
  0
XRECORD
  5
5F10
102
{ACAD_REACTORS
330
5F0C
102
}
330
5F0C
100
AcDbXrecord
280
     1
270
     1
271
     1
  0
XRECORD
  5
5F12
102
{ACAD_REACTORS
330
5F0C
102
}
330
5F0C
100
AcDbXrecord
280
     1
270
     1
271
     1
  0
XRECORD
  5
5F0F
102
{ACAD_REACTORS
330
5F0C
102
}
330
5F0C
100
AcDbXrecord
280
     1
270
     1
271
     1
  0
XRECORD
  5
6F74
102
{ACAD_REACTORS
330
5F1C
102
}
330
5F1C
100
AcDbXrecord
280
     1
102
MATERIAL
148
0.0
149
0.0
149
0.0
 93
        0
 94
      127
282
     0
 72
     0
 77
     0
171
     0
175
     0
179
     0
273
     0
  0
XRECORD
  5
5F1E
102
{ACAD_REACTORS
330
5F1C
102
}
330
5F1C
100
AcDbXrecord
280
     1
270
     1
271
     1
  0
XRECORD
  5
5F1D
102
{ACAD_REACTORS
330
5F1C
102
}
330
5F1C
100
AcDbXrecord
280
     1
270
     1
271
     1
  0
XRECORD
  5
5F21
102
{ACAD_REACTORS
330
5F1C
102
}
330
5F1C
100
AcDbXrecord
280
     1
270
     1
271
     1
  0
XRECORD
  5
5F20
102
{ACAD_REACTORS
330
5F1C
102
}
330
5F1C
100
AcDbXrecord
280
     1
270
     1
271
     1
  0
XRECORD
  5
5F22
102
{ACAD_REACTORS
330
5F1C
102
}
330
5F1C
100
AcDbXrecord
280
     1
270
     1
271
     1
  0
XRECORD
  5
5F1F
102
{ACAD_REACTORS
330
5F1C
102
}
330
5F1C
100
AcDbXrecord
280
     1
270
     1
271
     1
  0
CELLSTYLEMAP
  5
795B
102
{ACAD_REACTORS
330
6F6E
102
}
330
6F6E
100
AcDbCellStyleMap
 90
        3
300
CELLSTYLE
  1
TABLEFORMAT_BEGIN
 90
        5
170
     1
 91
        0
 92
    32768
 62
   257
 93
        1
300
CONTENTFORMAT
  1
CONTENTFORMAT_BEGIN
 90
        0
 91
        0
 92
      512
 93
        0
300

 40
0.0
140
1.0
 94
        5
 62
     0
340
5F57
144
0.25
309
CONTENTFORMAT_END
171
     1
301
MARGIN
  1
CELLMARGIN_BEGIN
 40
0.06
 40
0.06
 40
0.06
 40
0.06
 40
0.18
 40
0.18
309
CELLMARGIN_END
 94
        6
 95
        1
302
GRIDFORMAT
  1
GRIDFORMAT_BEGIN
 90
        0
 91
        1
 62
     0
 92
       -2
340
0
 93
        0
 40
0.045
309
GRIDFORMAT_END
 95
        2
302
GRIDFORMAT
  1
GRIDFORMAT_BEGIN
 90
        0
 91
        1
 62
     0
 92
       -2
340
0
 93
        0
 40
0.045
309
GRIDFORMAT_END
 95
        4
302
GRIDFORMAT
  1
GRIDFORMAT_BEGIN
 90
        0
 91
        1
 62
     0
 92
       -2
340
0
 93
        0
 40
0.045
309
GRIDFORMAT_END
 95
        8
302
GRIDFORMAT
  1
GRIDFORMAT_BEGIN
 90
        0
 91
        1
 62
     0
 92
       -2
340
0
 93
        0
 40
0.045
309
GRIDFORMAT_END
 95
       16
302
GRIDFORMAT
  1
GRIDFORMAT_BEGIN
 90
        0
 91
        1
 62
     0
 92
       -2
340
0
 93
        0
 40
0.045
309
GRIDFORMAT_END
 95
       32
302
GRIDFORMAT
  1
GRIDFORMAT_BEGIN
 90
        0
 91
        1
 62
     0
 92
       -2
340
0
 93
        0
 40
0.045
309
GRIDFORMAT_END
309
TABLEFORMAT_END
  1
CELLSTYLE_BEGIN
 90
        1
 91
        1
300
_TITLE
309
CELLSTYLE_END
300
CELLSTYLE
  1
TABLEFORMAT_BEGIN
 90
        5
170
     1
 91
        0
 92
        0
 62
   257
 93
        1
300
CONTENTFORMAT
  1
CONTENTFORMAT_BEGIN
 90
        0
 91
        0
 92
      512
 93
        0
300

 40
0.0
140
1.0
 94
        5
 62
     0
340
5F57
144
0.18
309
CONTENTFORMAT_END
171
     1
301
MARGIN
  1
CELLMARGIN_BEGIN
 40
0.06
 40
0.06
 40
0.06
 40
0.06
 40
0.18
 40
0.18
309
CELLMARGIN_END
 94
        6
 95
        1
302
GRIDFORMAT
  1
GRIDFORMAT_BEGIN
 90
        0
 91
        1
 62
     0
 92
       -2
340
0
 93
        0
 40
0.045
309
GRIDFORMAT_END
 95
        2
302
GRIDFORMAT
  1
GRIDFORMAT_BEGIN
 90
        0
 91
        1
 62
     0
 92
       -2
340
0
 93
        0
 40
0.045
309
GRIDFORMAT_END
 95
        4
302
GRIDFORMAT
  1
GRIDFORMAT_BEGIN
 90
        0
 91
        1
 62
     0
 92
       -2
340
0
 93
        0
 40
0.045
309
GRIDFORMAT_END
 95
        8
302
GRIDFORMAT
  1
GRIDFORMAT_BEGIN
 90
        0
 91
        1
 62
     0
 92
       -2
340
0
 93
        0
 40
0.045
309
GRIDFORMAT_END
 95
       16
302
GRIDFORMAT
  1
GRIDFORMAT_BEGIN
 90
        0
 91
        1
 62
     0
 92
       -2
340
0
 93
        0
 40
0.045
309
GRIDFORMAT_END
 95
       32
302
GRIDFORMAT
  1
GRIDFORMAT_BEGIN
 90
        0
 91
        1
 62
     0
 92
       -2
340
0
 93
        0
 40
0.045
309
GRIDFORMAT_END
309
TABLEFORMAT_END
  1
CELLSTYLE_BEGIN
 90
        2
 91
        1
300
_HEADER
309
CELLSTYLE_END
300
CELLSTYLE
  1
TABLEFORMAT_BEGIN
 90
        5
170
     1
 91
        0
 92
        0
 62
   257
 93
        1
300
CONTENTFORMAT
  1
CONTENTFORMAT_BEGIN
 90
        0
 91
        0
 92
      512
 93
        0
300

 40
0.0
140
1.0
 94
        2
 62
     0
340
5F57
144
0.18
309
CONTENTFORMAT_END
171
     1
301
MARGIN
  1
CELLMARGIN_BEGIN
 40
0.06
 40
0.06
 40
0.06
 40
0.06
 40
0.18
 40
0.18
309
CELLMARGIN_END
 94
        6
 95
        1
302
GRIDFORMAT
  1
GRIDFORMAT_BEGIN
 90
        0
 91
        1
 62
     0
 92
       -2
340
0
 93
        0
 40
0.045
309
GRIDFORMAT_END
 95
        2
302
GRIDFORMAT
  1
GRIDFORMAT_BEGIN
 90
        0
 91
        1
 62
     0
 92
       -2
340
0
 93
        0
 40
0.045
309
GRIDFORMAT_END
 95
        4
302
GRIDFORMAT
  1
GRIDFORMAT_BEGIN
 90
        0
 91
        1
 62
     0
 92
       -2
340
0
 93
        0
 40
0.045
309
GRIDFORMAT_END
 95
        8
302
GRIDFORMAT
  1
GRIDFORMAT_BEGIN
 90
        0
 91
        1
 62
     0
 92
       -2
340
0
 93
        0
 40
0.045
309
GRIDFORMAT_END
 95
       16
302
GRIDFORMAT
  1
GRIDFORMAT_BEGIN
 90
        0
 91
        1
 62
     0
 92
       -2
340
0
 93
        0
 40
0.045
309
GRIDFORMAT_END
 95
       32
302
GRIDFORMAT
  1
GRIDFORMAT_BEGIN
 90
        0
 91
        1
 62
     0
 92
       -2
340
0
 93
        0
 40
0.045
309
GRIDFORMAT_END
309
TABLEFORMAT_END
  1
CELLSTYLE_BEGIN
 90
        3
 91
        2
300
_DATA
309
CELLSTYLE_END
  0
XRECORD
  5
7963
102
{ACAD_REACTORS
330
6F6E
102
}
330
6F6E
100
AcDbXrecord
280
     1
102
ACAD_ROUNDTRIP_PRE2007_TABLESTYLE
 90
      512
 91
        0
  1

 92
      512
 93
        0
  2

 94
      512
 95
        0
  3

  0
ENDSEC
  0
EOF
